全力少年

ADVANCED

Level: 5
BPM: 133
Notes: 384

1
口口口口 |----|
口①①口 |----|
口①①口 |----|
口口口口 |①---|
2
①②②① |①---|
口口口口 |②---|
口口口口 |③---|
④③③④ |④---|
3
口③③口 |①---|
口②②口 |②---|
①④④① |③---|
口口口口 |④---|
4
①口口① |①---|
口①①口 |②---|
口口口口
②口口②

口口口口
口④④口
口③③口 |③---|
口口口口 |④---|
5
口口口口 |①---|
①口口① |----|
①口口① |----|
口口口口 |----|
6
口口口口 |①---|
口口口口 |----|
②口口② |②---|
①口口① |----|
7
②口口② |①---|
①①①① |②---|
口口口口
口口口口

口口口口
口口⑤④
③口口③ |③---|
口口口口 |④-⑤-|
8
口口口口 |①-②-|
④③口口 |③-④-|
口①②口 |----|
⑤口口口 |--⑤-|
9
口口口口 |--①-|
口口口⑥ |②-③-|
①②③⑤ |--④-|
口口口④ |⑤-⑥-|
10
口口口口 |----|
②②①① |----|
①①②② |----|
口口口口 |①-②-|
11
口口口口 |--①-|
⑦口口⑦ |②-③-|
④⑤⑥口 |④-⑤-|
口③②① |⑥-⑦-|
12
口①①口 |----|
口①①② |--①-|
口口口② |----|
口口口口 |--②-|
13
②③口口 |--①-|
①④⑤⑥ |②-③-|
①⑦口口 |④-⑤-|
口口口口 |⑥-⑦-|
14
口口口口 |--①-|
口口口口 |②---|
口口①② |----|
口口口口 |----|
15
⑦口口口 |①-②-|
⑤⑤③④ |③-④-|
①②⑥⑥ |⑤---|
口口口口 |⑥-⑦-|
16
⑤①②③ |①-②-|
口④④口 |③-④-|
口口口口 |----|
口口口口 |--⑤-|
17
口①②口 |①-②-|
③⑦④⑥ |③-④-|
③⑦④⑤ |--⑤-|
口口口口 |⑥-⑦-|
18
②口口口 |----|
口口口口 |----|
口口口口 |----|
口口口① |①-②-|
19
口①①口 |--①-|
④④⑤⑤ |②-③-|
③③②② |④-⑤-|
⑦⑦⑥⑥ |⑥-⑦-|
20
口口口口 |----|
口①①口 |--①-|
口口口② |----|
口口口口 |--②-|
21
⑧⑦⑥⑤ |①-②-|
口④③② |③-④-|
口口①口 |⑤-⑥-|
口口口口 |⑦-⑧-|
22
口③③口 |----|
④①①② |--①-|
口口口口 |--②-|
口口口口 |③-④-|
23
口口口口 |①---|
口④④口 |----|
③①①③ |--②-|
口②②口 |③-④-|
24
口口口口 |----|
口口④口 |----|
①②③口 |①-②-|
口口口口 |③-④-|
25
②口①口 |①---|
口③口口 |②-③-|
口⑤④口 |--④-|
口口口口 |--⑤-|
26
口④口口 |--①-|
口口口① |--②-|
②口口口 |--③-|
口口③口 |--④-|
27
口口口口 |----|
口口口口 |----|
口②口口 |----|
①口口口 |①-②-|
28
口口④口 |①-②-|
口③①口 |③-④-|
②口⑥口 |----|
口口口⑤ |⑤-⑥-|
29
口④口口 |①-②-|
⑦①③⑦ |③-④-|
口⑥⑥② |--⑤-|
口⑤⑤口 |⑥-⑦-|
30
③②②③ |----|
口①①口 |①---|
口口口口 |②---|
口口口口 |③---|
31
口口口口 |①-②-|
口口口口 |③-④-|
口④口口
③②①口

口口口口
⑧口⑤口
⑧口口⑥ |⑤-⑥-|
口口⑦口 |⑦-⑧-|
32
口口口口 |--①-|
口①②③ |②---|
口①②③ |③---|
口口口口 |----|
33
口口口口 |①-②-|
口口口口 |③-④-|
口口④口
口①②③

口口口口
口⑤口⑧
⑥口口⑧ |⑤-⑥-|
口⑦口口 |⑦-⑧-|
34
口口口口 |--①-|
③②①口 |②---|
③②①口 |③---|
口口口口 |----|
35
口口口① |①-②-|
口⑤⑤② |③-④-|
口口口③ |----|
口口口④ |--⑤-|
36
①口口口 |①-②-|
②⑤⑤口 |③-④-|
③口口口 |----|
④口口口 |--⑤-|
37
口口口口 |①-②-|
口口口口 |--③-|
②①①②
③口口③

口口口口
口口口口
口⑤⑤口 |--④-|
口④④口 |--⑤-|
38
②②②② |--①-|
口①①口 |--②-|
口口口口 |----|
口口口口 |----|
39
口口口⑦ |①-②-|
①②口⑥ |③-④-|
口口③⑤ |⑤-⑥-|
⑧口口④ |⑦-⑧-|
40
口③③口 |--①-|
口口口口 |②---|
①②②口 |③---|
口口口口 |----|
41
⑦口口口 |①-②-|
⑥口②① |③-④-|
⑤③口口 |⑤-⑥-|
④口口⑧ |⑦-⑧-|
42
口口口口 |--①-|
口③③口 |②---|
口②②① |③---|
口口口口 |----|
43
口④④口 |①-②-|
③口口③ |③-④-|
②⑥⑥② |--⑤-|
⑤①①⑤ |--⑥-|
44
②口口② |--①-|
③①①③ |②-③-|
口④④口 |--④-|
口⑤⑤口 |⑤---|
45
口口口口 |----|
口口口口 |----|
口口口口 |----|
口口口口 |----|
46
口口口口 |----|
口口口口 |----|
口口口口 |----|
口口口口 |----|
47
口口口口 |①---|
口①①口 |--②-|
口①①口
②口口②

⑤口口⑤
④口口④
③⑥⑥③ |③-④-|
口⑥⑥口 |⑤-⑥-|
48
⑤④④⑤ |--①-|
⑤③③⑤ |②---|
②口口② |③-④-|
①口口① |⑤---|
49
口口口口 |①---|
口口口口 |②---|
①口口①
②口口②

口口口口
口口口口
④口④口 |③---|
口③③口 |--④-|
50
口口口口 |----|
口口口口 |--①-|
口①口① |----|
口口口口 |----|
51
口口口口 |①---|
③②③② |②---|
口口口口 |③---|
①口口① |----|
52
口口口口 |①---|
③②③② |②---|
②③②③ |----|
①口口① |③---|
53
口口口口 |----|
口②口② |①---|
②口②口 |②---|
①口口① |----|
54
口口口口 |①---|
①口①口 |----|
口①口①
口口口口

口口口口
口②②口
口口口口 |----|
口口口口 |②---|
55
口口口口 |①---|
口口口口 |----|
口口口口 |----|
①口口① |----|
56
④④④④ |①---|
③③③③ |②---|
②②②② |③---|
①①①① |④---|


不确定度: 0

最終更新:2012年12月03日 22:13