全力少年

EXTREME

Level: 6
BPM: 133
Notes: 507

1
口口口口 |----|
口①①口 |----|
口①①口 |----|
口口口口 |①---|
2
①②②① |①---|
①③③① |②---|
口③③口 |③---|
④口口④ |④---|
3
口③③口 |①---|
口②②口 |②---|
①口口① |③---|
口口口口 |----|
4
①口口① |①---|
口①①口 |②---|
②口口②
口口口口

⑤③③⑤
口口口口
口④④口 |③-④-|
口④④口 |--⑤-|
5
口①①口 |----|
口②②口 |①---|
口③③口 |②---|
口口口口 |③---|
6
③②②③ |①---|
④口口④ |②-③-|
⑤口口⑤ |④---|
①口口① |⑤---|
7
口②口口 |①---|
口口口口 |②---|
口口口口
①①①①

口口口口
口口口口
③⑤口③ |③---|
口口④口 |④-⑤-|
8
④②口③ |①-②-|
口口①口 |③-④-|
口口口口 |----|
口⑤⑤口 |--⑤-|
9
③①①③ |--①-|
②⑥⑥② |②-③-|
口⑤⑤口 |--④-|
口④④口 |⑤-⑥-|
10
口口口口 |----|
②②①① |----|
①①②② |----|
口口口口 |①-②-|
11
口口口口 |--①-|
⑦口口⑦ |②-③-|
④⑤⑥口 |④-⑤-|
口③②① |⑥-⑦-|
12
①②②① |----|
口口口口 |--①-|
①口口① |----|
口口口口 |--②-|
13
①口口① |--①-|
②③③② |②-③-|
⑤④④⑤ |④-⑤-|
⑥⑦⑦⑥ |⑥-⑦-|
14
口②②口 |--①-|
口①①口 |②---|
口口口口 |----|
口口口口 |----|
15
口口口口 |①-②-|
①③口① |③-④-|
①②④①
口口口口

口⑥⑥口
⑦口⑤口
口口口口 |⑤---|
口口口口 |⑥-⑦-|
16
口口口口 |①-②-|
口口口① |③-④-|
②口口③
口④④口

口口口口
口口口⑤
⑤口口口 |----|
口口口口 |--⑤-|
17
④⑤⑥⑦ |①-②-|
③②①口 |③-④-|
口①②③ |--⑤-|
⑦⑥⑤④ |⑥-⑦-|
18
口口口口 |----|
口口口口 |----|
口口口② |----|
口口①① |①-②-|
19
③③口口 |--①-|
②口口口 |②-③-|
①①口口
口口口口

口口口口
口口⑥⑥
口⑦⑦⑤ |④-⑤-|
口口④④ |⑥-⑦-|
20
口①①口 |----|
口口口② |--①-|
口口口口 |----|
口口口口 |--②-|
21
⑥⑥口口 |①-②-|
⑦③③口 |③-④-|
口④①① |⑤---|
口⑤⑤② |⑥-⑦-|
22
口口口口 |①---|
口口口口 |--②-|
①②②口
口口口口

口口口口
⑥口口口
⑤口口③ |③-④-|
口④④口 |⑤-⑥-|
23
口①①口 |①---|
口②③④ |----|
②③④口 |--②-|
口口口口 |③-④-|
24
口①①口 |----|
②口口② |----|
口③③口 |①-②-|
④口口④ |③-④-|
25
⑤⑤⑤⑤ |①---|
④④③③ |②-③-|
②口口② |--④-|
口①①口 |--⑤-|
26
④④④④ |--①-|
③口口③ |--②-|
②②②② |--③-|
①口口① |--④-|
27
口口口口 |----|
①口口口 |----|
口口口口 |----|
口口口② |①-②-|
28
③口口④ |①-②-|
口口口② |③-④-|
口口口口
①口口口

口口口口
口口口口
口口口口 |----|
⑤⑥⑥⑤ |⑤-⑥-|
29
③②②③ |①---|
①①①① |②-③-|
口①①口
口口口口

口口口口
⑥口口⑥
⑤口口⑤ |--④-|
④口口④ |⑤-⑥-|
30
③②②③ |----|
③①①③ |①---|
口口口口 |②---|
口口口口 |③---|
31
口⑥⑦口 |①-②-|
⑤①③⑤ |③-④-|
口④②口 |⑤-⑥-|
⑧口口⑧ |⑦-⑧-|
32
③口口③ |--①-|
②①①② |②---|
口①①口 |③---|
口口口口 |----|
33
⑧⑦⑥⑤ |①-②-|
口⑦口⑤ |③-④-|
①口③口 |⑤-⑥-|
①②③④ |⑦-⑧-|
34
口口口口 |--①-|
①③②口 |②---|
口①③② |③---|
口口口口 |----|
35
①④口口 |①-②-|
②③口口 |③-④-|
⑤口口口 |----|
口口口口 |--⑤-|
36
口口④口 |①-②-|
口口③口 |③-④-|
口①②口 |----|
⑤口口口 |--⑤-|
37
口口口口 |①-②-|
口口口⑤ |--③-|
口口口④ |--④-|
口①②③ |--⑤-|
38
②②口① |--①-|
②②口口 |--②-|
口口口口 |----|
口口口口 |----|
39
⑦⑧口口 |①-②-|
⑥⑤口口 |③-④-|
口④③口 |⑤-⑥-|
口口②① |⑦-⑧-|
40
口口口① |--①-|
口口口② |②---|
口口口口 |③---|
口口口③ |----|
41
口口口口 |①-②-|
④口口④ |③-④-|
③②②③
口①①口

⑦⑥⑥⑦
口⑤⑤口
口口口口 |⑤-⑥-|
⑧⑧⑧⑧ |⑦-⑧-|
42
③③③③ |--①-|
②②②② |②---|
①①①① |③---|
口口口口 |----|
43
口口口口 |①-②-|
④②②④ |③-④-|
③①①③
口口口口

⑤⑤⑤⑤
口⑥⑥口
口口口口 |--⑤-|
口口口口 |--⑥-|
44
③口口③ |--①-|
⑤④④⑤ |②-③-|
口口口口 |--④-|
口①②口 |⑤---|
45
口②②口 |①---|
口口口口 |②---|
①①①①
口口口口

口口口口
③③③③
口④④口 |③---|
口口口口 |④---|
46
口口口口 |①---|
口口口口 |----|
口口口口 |----|
①①①① |----|
47
①口口① |①---|
口②②口 |②---|
口口口口
②②②②

④口口④
⑤口口⑤
③③③③ |③---|
口口口口 |④-⑤-|
48
口①①口 |--①-|
口③③口 |----|
②②②② |②---|
②①①② |③---|
49
②②②② |①---|
①④④① |②---|
口口口口 |③---|
③口口③ |--④-|
50
口口口口 |----|
口口口口 |--①-|
口①①口 |----|
口口口口 |----|
51
②②②② |①---|
③口③口 |②---|
口③口③ |③---|
①④④① |④---|
52
③③③③ |①---|
④②④② |②---|
②④②④ |③---|
①口口① |④---|
53
口口口口 |----|
口②口口 |①---|
口口②口 |②---|
①口口① |----|
54
口口口口 |①---|
①②①② |②---|
②①②①
口口口口

口③③口
口口④口
口④口口 |③---|
口口口口 |④---|
55
④④④④ |①---|
口③③口 |②---|
②口口② |③---|
①①①① |④---|
56
④④④④ |①---|
③③③③ |②---|
②②②② |③---|
①①①① |④---|


不确定度: 0

最終更新:2012年12月03日 22:13