天体観測

BASIC

Level: 2
BPM: 165
Notes: 194

1
口口口口 |----|
口口口口 |----|
口口口口 |----|
口口口口 |----|
2
口口口口 |----|
口口口口 |----|
口口口口 |----|
口口口口 |----|
3
口口口口 |----|
口口口口 |----|
口口口口 |----|
口口口口 |----|
4
口口口口 |----|
口口口口 |----|
口口口口 |----|
口口口口 |----|
5
口口口口 |----|
口口口口 |----|
口口口口 |----|
口口口口 |----|
6
口口口口 |①---|
①口口口 |----|
口口口口 |----|
口口口口 |----|
7
口口口口 |①---|
口①口口 |----|
口口口口 |----|
口口口口 |----|
8
口口口口 |①---|
口口①口 |----|
口口口口 |----|
口口口口 |----|
9
口口口口 |①---|
口口口① |----|
口口口口 |----|
口口口口 |----|
10
口口口口 |①---|
口口口口 |----|
口①口口 |----|
口口口口 |----|
11
口口口口 |①---|
口口口口 |----|
口口①口 |----|
口口口口 |----|
12
口口①口 |①---|
口口口口 |----|
口口口口 |----|
口口口口 |----|
13
口口口口 |①---|
口口口口 |----|
口口口① |----|
口口口口 |----|
14
口口口口 |①---|
口口口口 |----|
口口口口 |----|
口①口口 |----|
15
口口口口 |①---|
①口口口 |----|
口口口口 |----|
口口口口 |----|
16
口口口口 |①---|
口口口口 |----|
口①①口 |----|
口口口口 |----|
17
口口口口 |①---|
口①①口 |----|
口口口口 |----|
口口口口 |----|
18
口口口口 |①---|
口口口① |----|
口口口① |----|
口口口口 |----|
19
口口口口 |①---|
①口口口 |----|
①口口口 |----|
口口口口 |----|
20
口口①口 |①---|
口口口口 |----|
口口口口 |----|
口口口口 |----|
21
口口口口 |①---|
口口口口 |----|
口口口① |----|
口口口口 |----|
22
口口口口 |①---|
口口口口 |----|
口口口口 |----|
口①口口 |----|
23
口口口口 |①---|
①口口口 |----|
口口口口 |----|
口口口口 |----|
24
口口口口 |①---|
口口口口 |----|
口口口口 |----|
口①①口 |----|
25
口口口口 |①---|
口口口口 |----|
口①①口 |----|
口口口口 |----|
26
口口口口 |①---|
口口口口 |----|
②口口② |②---|
①口口① |----|
27
②口口② |①---|
①口口① |----|
口口口口 |②---|
口口口口 |----|
28
口口口口 |①---|
口口口口 |----|
口①①口 |----|
口口口口 |----|
29
口口口口 |①---|
口①①口 |----|
口口口口 |----|
口口口口 |----|
30
口口口口 |①---|
口口口口 |----|
口①①口 |----|
口口口口 |----|
31
口口口口 |①---|
口口口口 |----|
口口口口 |②---|
口①②口 |----|
32
口口口口 |①---|
口口口口 |----|
口口口口 |----|
①口口口 |----|
33
口口口口 |①---|
口口口口 |----|
口口口口 |----|
口口口① |----|
34
口口口口 |①---|
口口口口 |----|
口②②口 |②---|
口①①口 |----|
35
口②②口 |①---|
口①①口 |----|
口口口口 |②---|
口口口口 |----|
36
①口口② |①---|
口①②口 |----|
口口口口 |②---|
口口口口 |----|
37
口口口口 |①---|
口③③口 |②---|
口②②口 |③---|
口①①口 |----|
38
①①②② |①---|
口口口口 |----|
口口口口 |②---|
口口口口 |----|
39
口口口口 |①---|
口③③口 |②---|
口②②口 |③---|
口①①口 |----|
40
口口口口 |①---|
口口口口 |----|
①口口① |----|
口②②口 |②---|
41
口口口口 |----|
口口口口 |----|
口①①口 |①---|
口口口口 |----|
42
口口口口 |①---|
口口口口 |----|
口②②口 |②---|
①口口① |----|
43
口口口口 |①---|
口①①口 |----|
口口口口 |----|
口口口口 |----|
44
①口口② |①---|
口①②口 |----|
口口口口 |②---|
口口口口 |----|
45
口口口口 |①---|
口③③口 |②---|
口②②口 |③---|
口①①口 |----|
46
①①②② |①---|
口口口口 |----|
口口口口 |②---|
口口口口 |----|
47
口口口口 |①---|
口③③口 |②---|
口②②口 |③---|
口①①口 |----|
48
口口口口 |①---|
口口口口 |----|
口口口口 |----|
①①②② |②---|
49
口口口口 |----|
口①①口 |----|
口口口口 |①---|
口口口口 |----|
50
口口口口 |①---|
口口口口 |----|
口②②口 |②---|
①口口① |----|
51
口②②口 |①---|
口①①口 |----|
口口口口 |②---|
口口口口 |----|
52
①口口② |①---|
口①②口 |----|
口口口口 |②---|
口口口口 |----|
53
口口口口 |①---|
口③③口 |②---|
口②②口 |③---|
口①①口 |----|
54
①①②② |①---|
口口口口 |----|
口口口口 |②---|
口口口口 |----|
55
口口口口 |①---|
口③③口 |②---|
口②②口 |③---|
口①①口 |----|
56
口口口口 |①---|
口口口口 |----|
①口口① |----|
口②②口 |②---|
57
口口口口 |----|
口口口口 |----|
口①①口 |①---|
口口口口 |----|
58
口口口口 |①---|
③口口口 |----|
口②②口 |②---|
①口口① |③---|
59
口口口口 |①---|
口①②③ |②---|
口口口口 |③---|
口口口口 |----|
60
①口口② |①---|
口①②口 |----|
口口口口 |②---|
口口口口 |----|
61
口口口口 |①---|
口③③口 |②---|
口②②口 |③---|
口①①口 |----|
62
①①②② |①---|
口口口口 |----|
口口口口 |②---|
口口口口 |----|
63
口口口口 |①---|
口③③口 |②---|
口②②口 |③---|
口①①口 |----|
64
口口口口 |①---|
口口口口 |----|
①口口① |----|
口②②口 |②---|
65
口口口口 |----|
口口口口 |----|
口①①口 |①---|
口口口口 |----|
66
口口口口 |①---|
口口口口 |----|
口②②口 |②---|
①口口① |----|
67
口②②口 |①---|
口①①口 |----|
口口口口 |②---|
口口口口 |----|
68
口口口口 |①---|
①②②① |----|
①②②① |----|
口口口口 |②---|


不确定度: 0

最終更新:2012年12月03日 22:12