天体観測

EXTREME

Level: 5
BPM: 165
Notes: 464

1
口口口口 |----|
口口口口 |----|
口口口口 |----|
口口口口 |----|
2
①②口口 |--①-|
③④口口 |②-③-|
⑤口口口 |④---|
口口口口 |--⑤-|
3
口口口口 |①-②-|
口口口④ |③---|
口①口⑤ |④-⑤-|
②③口⑥ |⑥---|
4
口口①② |--①-|
口口③④ |②-③-|
口口⑤口 |④---|
口口口口 |--⑤-|
5
口口口口 |①-②-|
④口口口 |③---|
⑤口口① |④-⑤-|
⑥口②③ |⑥---|
6
②③口口 |①-②-|
④⑤口口 |③-④-|
⑥①①口 |⑤---|
口①①口 |--⑥-|
7
口口口口 |①-②-|
口口口④ |③---|
口①口⑤ |④-⑤-|
②③口⑥ |⑥---|
8
口口①② |--①-|
口口③④ |②-③-|
口口⑤口 |④---|
口口口口 |--⑤-|
9
口口口口 |①-②-|
④口口口 |③---|
⑤口口① |④-⑤-|
⑥口②③ |⑥---|
10
口口口口 |①---|
口①①口 |----|
口①①口 |----|
②②②② |--②-|
11
①①①① |----|
口口口口 |--①-|
口口口口 |----|
口口口口 |----|
12
④口口口 |①---|
③口口③ |--②-|
②①①② |③---|
口①①口 |--④-|
13
口①②③ |①-②-|
口口口口 |③-④-|
口④④口 |----|
口口口口 |----|
14
①②③④ |①---|
口口口口 |②---|
口口口口 |③---|
口口口口 |④---|
15
口口口口 |①---|
口口①① |②---|
②②口口 |③---|
口口③③ |----|
16
口口①① |①---|
②②口口 |----|
口口口口 |②---|
口口口口 |----|
17
口口口口 |①---|
口口口口 |----|
口口①① |②---|
②②口口 |----|
18
①①①① |①---|
②②②② |②---|
③③③③ |③---|
口口口口 |----|
19
口口口口 |①---|
②口口② |----|
②口口② |②---|
①口口① |----|
20
口口口④ |①---|
③口口③ |--②-|
②①①② |③---|
口①①口 |--④-|
21
③②①口 |①-②-|
口口口口 |③-④-|
口④④口 |----|
口口口口 |----|
22
④③②① |①---|
口口口① |②---|
口口口口 |③---|
口口口口 |④---|
23
口口口口 |①---|
①①口口 |②---|
口口②② |③---|
③③口口 |----|
24
①①口口 |①---|
口口②② |----|
口口口口 |②---|
口口口口 |----|
25
口口口口 |①---|
口口口口 |----|
①①口口 |②---|
口口②② |----|
26
口口口口 |①---|
③①①③ |②---|
②①①② |③---|
口口口口 |----|
27
①口口① |①---|
口口口口 |②---|
口③③口 |③---|
口②②口 |----|
28
口①①口 |①---|
①口口① |----|
②口口② |②---|
口口口口 |----|
29
口口口口 |①---|
口口口口 |----|
口③③口 |②---|
①②②① |③---|
30
口②②口 |①---|
②①①② |②---|
①口口① |----|
③③口口 |③---|
31
口口③③ |①---|
②②口口 |②---|
④④①① |③---|
口口④④ |④---|
32
①①②② |①---|
口口①① |----|
口口口口 |②---|
口口口口 |----|
33
口口口口 |①---|
口①①口 |----|
口①①口 |②---|
②②口口 |----|
34
④③②① |①---|
口③口① |②---|
口口口口 |③---|
口口口口 |④---|
35
口口口口 |①---|
口口口口 |②---|
①口口口 |③---|
①②③④ |④---|
36
①①①① |①---|
②②④④ |②---|
③③口口 |③---|
口口口口 |④---|
37
口口口口 |①---|
口口口口 |②---|
口口①① |③---|
③②②③ |----|
38
①口口③ |①---|
②①③④ |②---|
口②④口 |③---|
口口口口 |④---|
39
口口口口 |①---|
口③③口 |②---|
口口口口 |③---|
②①①② |----|
40
口①②口 |①---|
①口口② |----|
②口口① |----|
口②①口 |②---|
41
口口口口 |----|
口口口口 |----|
口①①口 |①---|
口口口口 |----|
42
口①①口 |①---|
口①①口 |----|
②③③② |②---|
②③③② |③---|
43
①口口① |①---|
②②②② |②---|
③口口③ |③---|
口口口口 |----|
44
①①①① |①---|
②②④④ |②---|
③③口口 |③---|
口口口口 |④---|
45
口口口口 |①---|
口口口口 |②---|
口口①① |③---|
③②②③ |----|
46
①①①① |①---|
②②④④ |②---|
③③口口 |③---|
口口口口 |④---|
47
口口口口 |①---|
口口口口 |②---|
口口①① |③---|
③②②③ |----|
48
口口口口 |①---|
①①口口 |----|
口口①① |----|
口口口口 |----|
49
口口③口 |①---|
②②①① |②---|
①①②② |③---|
口③口口 |----|
50
①①口口 |①---|
②口口② |----|
②口口② |②---|
③③①① |③---|
51
口口口口 |①---|
口口口口 |②---|
③②②③ |③---|
口口①① |----|
52
①①①① |①---|
②②④④ |②---|
③③口口 |③---|
口口口口 |④---|
53
口口口口 |①---|
口口口口 |②---|
口口①① |③---|
③②②③ |----|
54
①①①① |①---|
②②④④ |②---|
③③口口 |③---|
口口口口 |④---|
55
口口口口 |①---|
口口口口 |②---|
口口①① |③---|
③②②③ |----|
56
口口口口 |①---|
①①②口 |----|
口②①① |----|
口口口口 |②---|
57
口口口口 |----|
口①口口 |----|
口口①口 |①---|
口口口口 |----|
58
②口口口 |①---|
口口①① |----|
①①口口 |②---|
口③③② |③---|
59
口口口口 |①---|
口口口口 |②---|
②①①② |③---|
③口口③ |----|
60
①①①① |①---|
②②④④ |②---|
③③口口 |③---|
口口口口 |④---|
61
口口口口 |①---|
口口口口 |②---|
口口①① |③---|
③②②③ |----|
62
①①①① |①---|
②②④④ |②---|
③③口口 |③---|
口口口口 |④---|
63
口口口口 |①---|
口口口口 |②---|
口口①① |③---|
③②②③ |----|
64
口口口口 |①---|
①①口口 |----|
口口①① |----|
口口口口 |----|
65
口口③口 |①---|
②②①① |②---|
①①②② |③---|
口③口口 |----|
66
①①口口 |①---|
②口口② |----|
②口口② |②---|
③③①① |③---|
67
口口口口 |①---|
口口口口 |②---|
③②②③ |③---|
口口①① |----|
68
②②②② |①---|
①①①① |②---|
口口口口
口口口口

口口口口
④④④④
口③③口 |----|
口口口口 |③-④-|


不确定度: 0

最終更新:2012年12月03日 22:12