太陽の地図

BASIC

Level: 3
BPM: 128
Notes: 226

1
口口口口 |----|
口口口口 |----|
口口口口 |----|
口口口口 |----|
2
口口口口 |①---|
①②口口 |----|
口口口口 |②---|
口口口口 |----|
3
口口口口 |①---|
口口口口 |----|
口口②① |②---|
口口口口 |----|
4
口①口口 |①---|
口口②口 |----|
口口口口 |②---|
口口口口 |----|
5
口口口口 |①---|
口口口口 |----|
口①口口 |②---|
口口②口 |----|
6
①②口口 |①---|
口口口口 |----|
口口口口 |②---|
口口口口 |----|
7
口口口口 |①---|
口口②① |----|
口口口口 |②---|
口口口口 |----|
8
口①口口 |①---|
口口②口 |----|
口口口口 |②---|
口口口口 |----|
9
口口口口 |①---|
口口口口 |----|
口①口口 |②---|
口口②口 |----|
10
①②③口 |①---|
口④④口 |②---|
口口口口 |③---|
口口口口 |④---|
11
口口口口 |①---|
口④④口 |②---|
口③②① |③---|
口口口口 |④---|
12
①②③口 |①---|
口④④口 |②---|
口口口口 |③---|
口口口口 |④---|
13
口口口口 |①---|
口④④口 |②---|
口③②① |③---|
口口口口 |④---|
14
口口①口 |①---|
口口口② |②---|
口口口③ |③---|
口口④口 |④---|
15
口④口口 |①---|
③口口口 |②---|
②口口口 |③---|
口①口口 |④---|
16
口口口口 |①---|
口口口口 |----|
口②②口 |②---|
口①①口 |----|
17
口②②口 |①---|
口①①口 |----|
口口口口 |②---|
口口口口 |----|
18
口口口口 |----|
口①②口 |①---|
口②①口 |②---|
口口口口 |----|
19
口①口口 |①---|
口口②口 |--②-|
口②口口 |----|
口口①口 |----|
20
口口口口 |----|
口①②口 |①---|
口②①口 |②---|
口口口口 |----|
21
口口口口 |①---|
口口口口 |--②-|
②口口② |----|
口①①口 |----|
22
口口口口 |----|
口①②口 |①---|
口②①口 |②---|
口口口口 |----|
23
口①口口 |①---|
口口②口 |--②-|
口②口口 |----|
口口①口 |----|
24
口口口口 |----|
口①②口 |①---|
口②①口 |②---|
口口口口 |----|
25
口口口口 |①---|
口口口口 |--②-|
②口口② |----|
口①①口 |----|
26
口口口口 |----|
口②②口 |①---|
口①①口 |②---|
口口口口 |----|
27
口④口口 |①---|
口③口口 |②---|
口②口口 |③---|
口①口口 |④---|
28
口口④口 |①---|
口口③口 |②---|
口口②口 |③---|
口口①口 |④---|
29
口①口口 |①---|
口口②口 |②---|
口③口口 |③---|
口口④口 |④---|
30
④口口口 |①---|
③口口口 |②---|
②口口口 |③---|
①口口口 |④---|
31
口口口④ |①---|
口口口③ |②---|
口口口② |③---|
口口口① |④---|
32
口①口口 |①---|
口口②口 |②---|
口③口口 |③---|
口口④口 |④---|
33
口口④口 |①---|
口③口口 |②---|
口口②口 |③---|
口①口口 |④---|
34
口口口口 |①---|
口②④口 |②---|
口①③口 |③---|
口口口口 |④---|
35
②口口④ |①---|
①口口③ |②---|
口口口口 |③---|
口口口口 |④---|
36
口①口口 |①---|
口②口口 |②---|
口③口口 |③---|
口④口口 |④---|
37
口口①口 |①---|
口口②口 |②---|
口口③口 |③---|
口口④口 |④---|
38
口口口口 |①---|
口②③口 |②---|
①口口④ |③---|
口口口口 |④---|
39
口口口口 |①---|
④口口① |②---|
口③②口 |③---|
口口口口 |④---|
40
口口④口 |①---|
口口口③ |②---|
口口口② |③---|
口口①口 |④---|
41
口④口口 |①---|
③口口口 |②---|
②口口口 |③---|
口①口口 |④---|
42
口口④口 |①---|
口③口口 |②---|
口口②口 |③---|
口①口口 |④---|
43
口口口口 |①---|
口②②口 |----|
口①①口 |②---|
口口口口 |----|
44
口口口口 |①---|
①②③口 |②---|
口④④口 |③---|
口口口口 |④---|
45
口口口口 |①---|
口口口口 |②---|
口④④口 |③---|
口③②① |④---|
46
口①口口 |①---|
口口②口 |②---|
口③口口 |③---|
口口④口 |④---|
47
口口④口 |①---|
口③口口 |②---|
口口②口 |③---|
口①口口 |④---|
48
口口口口 |①---|
口②④口 |②---|
口①③口 |③---|
口口口口 |④---|
49
②口口④ |①---|
①口口③ |②---|
口口口口 |③---|
口口口口 |④---|
50
口①②口 |①---|
口口口③ |②---|
口口口④ |③---|
口口口口 |④---|
51
口口口口 |①---|
④口口口 |②---|
③口口口 |③---|
口②①口 |④---|
52
①②③口 |①---|
口④④口 |②---|
口口口口 |③---|
口口口口 |④---|
53
口口口口 |①---|
口④④口 |②---|
口③②① |③---|
口口口口 |④---|
54
口④口口 |①---|
口③口口 |②---|
口②口口 |③---|
口①口口 |④---|
55
口口④口 |①---|
口口③口 |②---|
口口②口 |③---|
口口①口 |④---|
56
口①口口 |①---|
口口②口 |②---|
口③口口 |③---|
口口④口 |④---|
57
口口④口 |①---|
口③口口 |②---|
口口②口 |③---|
口①口口 |④---|
58
口口口口 |①---|
②口口② |②---|
口①①口 |----|
口口口口 |----|
59
口①口口 |①---|
口口②口 |②---|
口③口口 |③---|
口口④口 |④---|
60
口口口口 |①---|
口①①口 |----|
口口口口 |----|
口口口口 |----|


不确定度: 0

最終更新:2012年12月03日 22:12