太陽の地図

ADVANCED

Level: 4
BPM: 128
Notes: 276

1
口口口口 |----|
口口口口 |----|
口口口口 |----|
口口口口 |----|
2
①②口③ |--①-|
口口口④ |--②-|
口口口口 |--③-|
口口口口 |④---|
3
口口口口 |--①-|
口口口口 |--②-|
④口口口 |--③-|
③口②① |④---|
4
口①口口 |①---|
口口②口 |②-③-|
口③口口 |--④-|
口⑤④口 |--⑤-|
5
③④口口 |--①-|
口口②口 |②---|
口①口口 |--③-|
口口口口 |--④-|
6
口口口① |----|
口口口② |①-②-|
口口口口 |--③-|
口口④③ |--④-|
7
③④口口 |----|
口口口口 |①-②-|
②口口口 |--③-|
①口口口 |--④-|
8
口口①口 |①---|
口②③口 |②-③-|
口④⑤口 |--④-|
口口口口 |--⑤-|
9
口口口口 |--①-|
口口口口 |②---|
口口口口 |----|
口①②口 |----|
10
①②口③ |--①-|
口口口④ |--②-|
口口口口 |--③-|
口口口口 |④---|
11
口口口口 |--①-|
口口口口 |--②-|
口口口口 |--③-|
④③②① |--④-|
12
口口口口 |①---|
口②口④ |②-③-|
①口③⑤ |----|
口口口口 |④-⑤-|
13
口②③口 |--①-|
口口①口 |----|
口口口口 |--②-|
口口口口 |--③-|
14
口口口口 |--①-|
口①②口 |②---|
口口口口 |----|
口口口口 |----|
15
④口口① |--①-|
③口口② |--②-|
②口口③ |--③-|
①口口④ |--④-|
16
口口口口 |--①-|
口②②口 |②---|
口①①口 |----|
口口口口 |----|
17
口口口口 |①---|
②口口② |----|
①口口① |②---|
口口口口 |----|
18
口口口口 |----|
口①②口 |①---|
口②①口 |②---|
口口口口 |----|
19
①口口② |①---|
口①②口 |--②-|
口②①口 |----|
②口口① |----|
20
口口口口 |----|
口①②口 |①---|
口②①口 |②---|
口口口口 |----|
21
口口口口 |①---|
②口口② |--②-|
口口口口 |----|
口①①口 |----|
22
口口口口 |----|
口①②口 |①---|
口②①口 |②---|
口口口口 |----|
23
①口口② |①---|
口①②口 |--②-|
口②①口 |----|
②口口① |----|
24
口口口口 |----|
口①②口 |①---|
口②①口 |②---|
口口口口 |----|
25
②口口② |①---|
口口口口 |--②-|
口口口口 |----|
口①①口 |----|
26
③口口口 |----|
②②②② |①---|
①①①① |②---|
口口口口 |--③-|
27
口①口⑤ |①---|
口②口口 |②-③-|
口③口口 |--④-|
口④口口 |--⑤-|
28
口口①口 |①---|
口口②口 |②-③-|
口口③口 |--④-|
口⑤④口 |--⑤-|
29
口口口口 |----|
口口口口 |----|
口口口口 |----|
口口口口 |----|
30
口①④口 |----|
口口②口 |①---|
口③口口 |②-③-|
口口口口 |--④-|
31
口口口口 |--①-|
口①口⑥ |②-③-|
口口②⑤ |--④-|
口③④口 |⑤-⑥-|
32
口口①口 |①-②-|
口②口口 |--③-|
口口③口 |--④-|
口④⑤口 |--⑤-|
33
口③口口 |①-②-|
口口②口 |③---|
口①口口 |----|
口口口口 |----|
34
②口口口 |----|
③①口④ |①---|
④口①③ |②---|
口口口② |③-④-|
35
口口①口 |--①-|
口②口口 |②-③-|
口口③口 |--④-|
口④⑤口 |--⑤-|
36
⑤口④③ |①-②-|
口⑥②口 |③-④-|
口口口① |--⑤-|
口口口口 |--⑥-|
37
口口口口 |--①-|
口口口口 |②---|
①口口口 |----|
口②口口 |----|
38
口①②口 |----|
口口口③ |①---|
口口口④ |②---|
口口口口 |③-④-|
39
口⑤口口 |--①-|
④口口口 |②-③-|
③口口口 |--④-|
口②①口 |--⑤-|
40
口口①口 |--①-|
口口口口 |----|
口口口口 |----|
口口口口 |----|
41
口①②口 |--①-|
④口口③ |--②-|
③口口④ |--③-|
口②①口 |--④-|
42
口口①口 |--①-|
口②口口 |②-③-|
口口③口
口口口口

口口口口
口⑤⑤口
口口口口 |④---|
口④口口 |--⑤-|
43
口①①口 |----|
口口口口 |--①-|
口口口口 |----|
口口口口 |----|
44
①②③④ |--①-|
口口口口 |--②-|
口口口口 |--③-|
④③②① |④---|
45
口口口口 |--①-|
①②③④ |--②-|
④③②① |--③-|
口口口口 |④---|
46
口①口口 |①---|
口口②口 |②-③-|
口③口口 |--④-|
口⑤④口 |--⑤-|
47
口口口口 |--①-|
口②口口 |②---|
口④①口 |--③-|
口③口口 |--④-|
48
口②口口 |----|
口①口口 |①-②-|
口口④口 |--③-|
口口③口 |--④-|
49
④口②③ |----|
口口①口 |①-②-|
口口口口 |--③-|
口口口口 |--④-|
50
口口口口 |----|
口②①口 |①-②-|
口④③口 |--③-|
口口⑤口 |④-⑤-|
51
口口口口 |--①-|
口口口口 |----|
口口口口 |----|
口①口口 |----|
52
①②③④ |--①-|
口口口口 |--②-|
口口口口 |--③-|
④③②① |④---|
53
口①口口 |--①-|
口口②口 |--②-|
口③口口 |--③-|
口口④口 |--④-|
54
口口④口 |----|
口③口口 |①-②-|
口口②口 |----|
口①口口 |③-④-|
55
口①口口 |--①-|
口口口口 |----|
③口口③ |--②-|
②口口② |--③-|
56
口口口口 |--①-|
①口口① |----|
口口口口 |----|
口口口口 |----|
57
口①②口 |--①-|
④口口③ |--②-|
③口口④ |--③-|
口②①口 |--④-|
58
口①②口 |--①-|
口口口口 |②---|
口口口口 |----|
口②①口 |----|
59
④口口④ |①---|
③口口③ |②---|
②口口② |③---|
①口口① |④---|
60
口口口口 |①---|
口①①口 |----|
口①①口 |----|
口口口口 |----|


不确定度: 0

最終更新:2012年12月03日 22:11