太陽の地図

EXTREME

Level: 5
BPM: 128
Notes: 444

1
口口口口 |----|
口口口口 |----|
口口口口 |----|
口口口口 |----|
2
口口③④ |--①-|
口①②口 |--②-|
口②①口 |--③-|
④③口口 |④---|
3
④③口口 |--①-|
口②①口 |--②-|
口①②口 |--③-|
口口③④ |④---|
4
口口口口 |①---|
②①口③ |②-③-|
③口①②
口口口口

口口口口
口④⑤口
口⑤④口 |--④-|
口口口口 |--⑤-|
5
口口①② |--①-|
口口口口 |②---|
口口口口
②①口口

口口④口
口口③口
口③口口 |--③-|
口④口口 |--④-|
6
口口③④ |----|
口①②口 |①-②-|
口②①口 |--③-|
④③口口 |--④-|
7
②③④口 |----|
口①口口 |①-②-|
口口①口 |--③-|
口④③② |--④-|
8
口⑤口① |①---|
口④③② |②-③-|
②③④口 |--④-|
①口⑤口 |--⑤-|
9
口口①② |--①-|
口口口口 |②---|
口口口口 |----|
②①口口 |----|
10
④口口④ |--①-|
口③③口 |--②-|
②口口② |--③-|
口①①口 |④---|
11
④口口② |--①-|
①口口③ |--②-|
③口口① |--③-|
②口口④ |--④-|
12
口口口口 |①---|
①②③口 |②-③-|
口③②①
口口口口

口④口口
口⑤口口
口口⑤口 |----|
口口④口 |④-⑤-|
13
口②①口 |--①-|
口③口口 |----|
口口③口 |--②-|
口①②口 |--③-|
14
口口②口 |--①-|
口口①口 |②---|
口①口口 |----|
口②口口 |----|
15
①②③④ |--①-|
口口口口 |--②-|
口口口口 |--③-|
④③②① |--④-|
16
口口口口 |--①-|
②②①① |②---|
①①②② |----|
口口口口 |----|
17
口②②口 |①---|
①口口① |----|
①口口① |②---|
口②②口 |----|
18
①①口口 |----|
口口②② |①---|
②②口口 |②---|
口口①① |----|
19
口口②② |①---|
①①口口 |--②-|
口口①① |----|
②②口口 |----|
20
口口②② |----|
①①口口 |①---|
口口①① |②---|
②②口口 |----|
21
①①口口 |①---|
口口②② |--②-|
②②口口 |----|
口口①① |----|
22
口口②② |----|
①①口口 |①---|
口口①① |②---|
②②口口 |----|
23
①①口口 |①---|
口口②② |--②-|
②②口口 |----|
口口①① |----|
24
口口②② |----|
①①口口 |①---|
口口①① |②---|
②②口口 |----|
25
①①口口 |①---|
口口②② |--②-|
②②口口 |----|
口口①① |----|
26
③口②口 |----|
口①①② |①---|
②①①口 |②---|
口②口③ |--③-|
27
口①②③ |①---|
⑤口口④ |②-③-|
④口口⑤ |--④-|
③②①口 |--⑤-|
28
口口口④ |①---|
⑤①②③ |②-③-|
③②①⑤ |--④-|
④口口口 |--⑤-|
29
①口口口 |①---|
口口口口 |----|
口口口口 |----|
口口口① |----|
30
口口口② |----|
口④①③ |①---|
③①④口 |②-③-|
②口口口 |--④-|
31
①口口④ |--①-|
②⑥⑤③ |②-③-|
③⑤⑥② |--④-|
④口口① |⑤-⑥-|
32
①口口口 |①-②-|
②⑤④③ |--③-|
③④⑤② |--④-|
口口口① |--⑤-|
33
口口口口 |--①-|
①口口② |②---|
②口口① |----|
口口口口 |----|
34
口③④口 |----|
②口口① |①---|
①口口② |②---|
口④③口 |③-④-|
35
①⑤口④ |--①-|
②口口③ |②-③-|
③口口② |--④-|
④口口① |--⑤-|
36
口口口口 |①-②-|
口⑥①口 |③-④-|
口②⑤口 |--⑤-|
口④③口 |--⑥-|
37
口②①口 |--①-|
口口口口 |②---|
口口口口 |----|
口口口口 |----|
38
①口口④ |----|
②口口③ |①---|
③口口② |②---|
④口口① |③-④-|
39
④口①口 |--①-|
⑤③②口 |②-③-|
口②③⑤ |--④-|
口①口④ |--⑤-|
40
口口口① |--①-|
口口口口 |----|
口口口口 |----|
①口口口 |----|
41
口口口② |--①-|
④口①③ |--②-|
③①口④ |--③-|
②口口口 |--④-|
42
②③口口 |--①-|
口①口口 |②-③-|
口口①口
口口③②

口口④口
⑤⑤⑤⑤
口口口口 |④---|
口④口口 |--⑤-|
43
口口口口 |----|
口口口口 |----|
①①①① |①---|
口口口口 |----|
44
口④口口 |--①-|
④③④口 |--②-|
口④②口 |--③-|
口①口口 |④---|
45
口口④口 |--①-|
口④③④ |--②-|
口②④口 |--③-|
口口①口 |④---|
46
①口⑤④ |①---|
②口口③ |②-③-|
③口口② |--④-|
④⑤口① |--⑤-|
47
口口口口 |--①-|
④②①③ |②---|
③①②④ |--③-|
口口口口 |--④-|
48
口口③④ |----|
口②①口 |①-②-|
口①②口 |--③-|
④③口口 |--④-|
49
口口③④ |----|
口①②口 |①-②-|
口②①口 |--③-|
④③口口 |--④-|
50
口⑤口口 |----|
②④③① |①-②-|
①③④② |--③-|
口口⑤口 |④-⑤-|
51
①口口口 |--①-|
②口口口 |②---|
口口口② |----|
口口口① |----|
52
口④口口 |--①-|
④③④口 |--②-|
口④②口 |--③-|
口①口口 |④---|
53
①④口口 |--①-|
②口口③ |--②-|
③口口② |--③-|
口口④① |--④-|
54
口口口口 |----|
③①②④ |①-②-|
④②①③ |----|
口口口口 |③-④-|
55
③口口① |--①-|
口②口口 |----|
口口②口 |--②-|
①口口③ |--③-|
56
口口口口 |--①-|
口口口① |----|
①口口口 |----|
口口口口 |----|
57
口①②口 |--①-|
④口口③ |--②-|
③口口④ |--③-|
口②①口 |--④-|
58
口口口口 |--①-|
口②②口 |②---|
口①①口 |----|
口口口口 |----|
59
③④④③ |①---|
口口口口 |②---|
口口口口 |③---|
①②②① |④---|
60
口口口口 |①---|
①①①① |----|
①①①① |----|
口口口口 |----|


不确定度: 0

最終更新:2012年12月03日 22:11