SPEED KING

BASIC

Level: 3
BPM: 204
Notes: 229

1
口口口口 |----|
口口口口 |----|
口口口口 |----|
口口口口 |----|
2
①口口口 |①---|
口②口口 |----|
口口口口 |②---|
口口口口 |----|
3
口口口② |①---|
口口①口 |----|
口口口口 |②---|
口口口口 |----|
4
口口口口 |①---|
①口口口 |----|
口②口口 |②---|
口口口口 |----|
5
口口口口 |①---|
口口口② |----|
口口①口 |②---|
口口口口 |----|
6
口口口口 |①---|
口②口口 |----|
①口口口 |②---|
口口口口 |----|
7
口口口口 |①---|
口口①口 |----|
口口口② |②---|
口口口口 |----|
8
口口口口 |①---|
口口口口 |----|
口口口口 |②---|
口①②口 |----|
9
口口口口 |①---|
口②②口 |----|
口①①口 |②---|
口口口口 |----|
10
口②口口 |①---|
①口口口 |----|
口口口口 |②---|
口口口口 |----|
11
口口①口 |①---|
口口口② |----|
口口口口 |②---|
口口口口 |----|
12
口口口口 |①---|
口②口口 |----|
①口口口 |②---|
口口口口 |----|
13
口口口口 |①---|
口口①口 |----|
口口口② |②---|
口口口口 |----|
14
口口口口 |①---|
口口口口 |----|
①②口口 |②---|
口口口口 |----|
15
口口口口 |①---|
口口口口 |----|
口口①② |②---|
口口口口 |----|
16
口口口口 |①---|
口口口口 |----|
口口口口 |②---|
①②口口 |----|
17
口口口口 |①---|
口口口口 |----|
口口口口 |②---|
口口①② |----|
18
口口口口 |-------①|
口①②口 |----|
口口口口 |---②----|
口口口口 |----|
19
①口口② |①---|
口口口口 |----|
口口口口 |②---|
口口口口 |----|
20
口口口口 |----|
口口口口 |①---|
口①②口 |--②-|
口口口口 |----|
21
口①②口 |①---|
口口口口 |----|
口口口口 |②---|
口口口口 |----|
22
口②口口 |①---|
①口口口 |----|
口口口口 |②---|
口口口口 |----|
23
口口①口 |①---|
口口口② |----|
口口口口 |②---|
口口口口 |----|
24
口口口口 |①---|
口口口口 |----|
口口口① |②---|
口口②口 |----|
25
口口口口 |①---|
口口口口 |----|
②口口口 |②---|
口①口口 |----|
26
①口②口 |①---|
口口口口 |----|
口口口口 |②---|
口口口口 |----|
27
口口口口 |①---|
①口②口 |----|
口口口口 |②---|
口口口口 |----|
28
口①口② |①---|
口口口口 |----|
口口口口 |②---|
口口口口 |----|
29
口口口口 |①---|
口①口② |----|
口口口口 |②---|
口口口口 |----|
30
①口口口 |①---|
口②口口 |----|
口口口口 |②---|
口口口口 |----|
31
口口口口 |①---|
口口口口 |----|
口口①口 |②---|
口口口② |----|
32
口口口① |①---|
口口②口 |----|
口口口口 |②---|
口口口口 |----|
33
口口口口 |①---|
口口口口 |----|
口①口口 |②---|
②口口口 |----|
34
口口口口 |①---|
①口②口 |----|
口口口口 |②---|
口口口口 |----|
35
口口口口 |①---|
口口口口 |----|
①口②口 |②---|
口口口口 |----|
36
口口口口 |①---|
口①口② |----|
口口口口 |②---|
口口口口 |----|
37
口口口口 |①---|
口口口口 |----|
口①口② |②---|
口口口口 |----|
38
口口口口 |①---|
口口口口 |----|
口②口口 |②---|
①口口口 |----|
39
口口口② |①---|
口口①口 |----|
口口口口 |②---|
口口口口 |----|
40
口口口口 |①---|
口口口口 |----|
口口②口 |②---|
口口口① |----|
41
②口口口 |①---|
口①口口 |----|
口口口口 |②---|
口口口口 |----|
42
口口口口 |①---|
口口口口 |----|
①口②口 |②---|
口口口口 |----|
43
口口口口 |①---|
口口口口 |----|
口口口口 |②---|
①口②口 |----|
44
口口口口 |①---|
口口口口 |----|
口①口② |②---|
口口口口 |----|
45
口口口口 |①---|
口口口口 |----|
口口口口 |②---|
口①口② |----|
46
①②口口 |①---|
口口口口 |----|
口口口口 |②---|
口口口口 |----|
47
口口①② |①---|
口口口口 |----|
口口口口 |②---|
口口口口 |----|
48
口口口口 |①---|
口口口① |----|
口口口② |②---|
口口口口 |----|
49
口口口口 |①---|
口③③口 |----|
口②②口 |②---|
口口口① |③---|
50
①②③④ |①---|
口口口口 |②---|
口口口口 |③---|
口口口口 |④---|
51
口口口口 |①---|
④③②① |②---|
口口口口 |③---|
口口口口 |④---|
52
口①②口 |①---|
口口口③ |②---|
口口口④ |③---|
口口口口 |④---|
53
口口口口 |①---|
④口口口 |②---|
③口口口 |③---|
口②①口 |④---|
54
①②③④ |①---|
口口口口 |②---|
口口口口 |③---|
口口口口 |④---|
55
口口口口 |①---|
④③②① |②---|
口口口口 |③---|
口口口口 |④---|
56
④③②① |①---|
口口口口 |②---|
口口口口 |③---|
口口口口 |④---|
57
口口口口 |①---|
①②③④ |②---|
口口口口 |③---|
口口口口 |④---|
58
口口口口 |①---|
口口口口 |----|
口①①口 |②---|
口②②口 |----|
59
口口口口 |①---|
①口口① |----|
②口口② |②---|
口口口口 |----|
60
口口口口 |①---|
①①②② |----|
口口口口 |②---|
口口口口 |----|
61
口口口口 |①---|
口口口口 |----|
①①②② |②---|
口口口口 |----|
62
①口口口 |①---|
口①口口 |----|
口口②口 |②---|
口口口② |----|
63
口口口① |①---|
口口①口 |----|
口②口口 |②---|
②口口口 |----|
64
①口口口 |①---|
口①口口 |----|
口口②口 |②---|
口口口② |----|
65
口口口① |①---|
口口①口 |----|
口②口口 |②---|
②口口口 |----|
66
口②口口 |①---|
①口口口 |----|
口口口口 |②---|
口口口口 |----|
67
口口口口 |①---|
口口①口 |----|
口②口口 |②---|
口口口口 |----|
68
口口①口 |①---|
口口口② |----|
口口口口 |②---|
口口口口 |----|
69
口口口口 |①---|
口②口口 |----|
口口①口 |②---|
口口口口 |----|
70
口口口口 |①---|
口口口口 |----|
①②口口 |②---|
口口口口 |----|
71
口口口口 |①---|
口口口口 |----|
口口①② |②---|
口口口口 |----|
72
口口口口 |①---|
口口口口 |----|
口口口口 |②---|
①②口口 |----|
73
口口口口 |①---|
口口口口 |----|
口口口口 |②---|
口口①② |----|
74
口②口口 |①---|
①口口口 |----|
口口口口 |②---|
口口口口 |----|
75
口口口口 |①---|
口口①口 |----|
口②口口 |②---|
口口口口 |----|
76
口口①口 |①---|
口口口② |----|
口口口口 |②---|
口口口口 |----|
77
口口口口 |①---|
口②口口 |----|
口口①口 |②---|
口口口口 |----|
78
①口口② |①---|
口口口口 |----|
口口口口 |②---|
口口口口 |----|
79
口口口口 |①---|
①口口② |----|
口口口口 |②---|
口口口口 |----|
80
口口口口 |①---|
口口口口 |----|
①口口② |②---|
口口口口 |----|
81
口口口口 |①---|
口口口口 |----|
口口口口 |②---|
①口口② |----|
82
口口口口 |①---|
口口口口 |----|
口②②口 |②---|
口①①口 |----|
83
口②②口 |①---|
口①①口 |----|
口口口口 |②---|
口口口口 |----|
84
口口口口 |①---|
口口口口 |----|
②②口口 |②---|
①①口口 |----|
85
②②口口 |①---|
①①口口 |----|
口口口口 |②---|
口口口口 |----|
86
口口口口 |①---|
口口口口 |----|
口口②② |②---|
口口①① |----|
87
口口②② |①---|
口口①① |----|
口口口口 |②---|
口口口口 |----|
88
口口口口 |①---|
口口口口 |----|
②口口② |②---|
①口口① |----|
89
口口口口 |①---|
①②③① |----|
口口口口 |②---|
口口口口 |③---|


不确定度: 0

最終更新:2012年12月03日 22:08