Rush!!
kors k feat. 吉河順央

BASIC

Level: 4
BPM: 210
Notes: 323

1
口口口口 |----|
口口口口 |----|
口口口口 |----|
口口口口 |----|
2
口口口口 |①---|
④口口口 |②-③-|
①口②③ |----|
口口口口 |④---|
3
口③③口 |①-②-|
口口①② |----|
口口口口 |③---|
口④④口 |④---|
4
口口口口 |①---|
④口口口 |②-③-|
①口②③ |----|
口口口口 |④---|
5
口④④口 |①-②-|
口口①② |--③-|
口口口口 |--④-|
口③③口 |----|
6
口口口口 |①---|
④口口口 |②-③-|
①口②③ |----|
口口口口 |④---|
7
口③③口 |①-②-|
口口①② |----|
口口口口 |③---|
口④④口 |④---|
8
口口口口 |①---|
口④④⑤ |②-③-|
①口②③ |--④-|
口口口口 |--⑤-|
9
口口口口 |--①-|
口口口口 |②-③-|
①②③④ |④---|
口口口口 |----|
10
口口口口 |①---|
口①①口 |----|
口②②口 |②---|
口口口口 |----|
11
口①①口 |①---|
口口口口 |----|
口口口口 |----|
口口口口 |----|
12
①口口① |①---|
口口口口 |----|
口口口口 |----|
口口口口 |----|
13
口①①口 |①---|
②口口② |----|
③口口③ |②---|
口口口口 |③---|
14
口口口口 |①---|
口口口口 |----|
口②②口 |②---|
①口口① |----|
15
口①①口 |①---|
口口口口 |----|
口口口口 |----|
口口口口 |----|
16
①②②① |①---|
口口口口 |----|
口口口口 |----|
口口口口 |--②-|
17
②口口② |----|
①口口① |--①-|
口口口口 |--②-|
口口口口 |----|
18
口口口口 |①---|
口口口口 |----|
口①②口 |②---|
口口口口 |----|
19
口口口口 |①---|
口①②口 |----|
口口口口 |②---|
口口口口 |----|
20
口口口口 |①---|
口口口口 |----|
口①②口 |②---|
口口口口 |----|
21
口口口④ |①---|
口①口③ |--②-|
口口口② |--③-|
口口口口 |--④-|
22
口口口口 |----|
口口口口 |----|
口①口口 |①---|
口口口口 |----|
23
口口口口 |①---|
口②①口 |----|
口口口口 |②---|
口口口口 |----|
24
口口口口 |①---|
口口口口 |----|
口②①口 |②---|
口口口口 |----|
25
口口口口 |①---|
口③①口 |----|
口②口口 |②---|
口口口口 |③---|
26
口口①口 |①---|
口口③口 |----|
口口②口 |②---|
口口口口 |③---|
27
口①口口 |①---|
口③口口 |----|
口②口口 |②---|
口口口口 |③---|
28
口口①口 |①---|
口口③口 |----|
口口②口 |②---|
口口口口 |③---|
29
口①口口 |①---|
口口口口 |----|
口口口口 |----|
口口口口 |----|
30
口口口口 |①---|
口口口口 |----|
口②②口 |②---|
口①①口 |----|
31
口②②口 |①---|
口①①口 |----|
口口口口 |②---|
口口口口 |----|
32
口口口口 |①---|
①口口① |----|
口口口口 |----|
口口口口 |----|
33
口口口口 |①---|
口口②② |----|
①①口口 |②---|
口口口口 |----|
34
口①①口 |①---|
口口口口 |----|
口口口口 |----|
口口口口 |----|
35
口口②口 |①---|
口口口口 |----|
口①口口 |②---|
口口口口 |----|
36
口口口口 |①---|
口①①口 |----|
口口口口 |----|
口口口口 |----|
37
口②口口 |①---|
口口口口 |----|
口口①口 |②---|
口口口口 |----|
38
口口口口 |①---|
口①①口 |----|
口口口口 |----|
口口口口 |----|
39
口口口口 |①---|
①口口① |----|
口口口口 |----|
口口口口 |----|
40
口口口口 |①---|
口②②口 |----|
①口口① |②---|
口口口口 |----|
41
口口口口 |①---|
②口口② |----|
口①①口 |②---|
口口口口 |----|
42
口口口口 |①---|
口口口口 |----|
口①①口 |----|
口口口口 |----|
43
口①①口 |①---|
口口口口 |----|
口口口口 |----|
口口口口 |----|
44
口口口口 |①---|
②口口② |----|
①口口① |②---|
口口口口 |----|
45
①口口① |①---|
口口③口 |----|
口口②口 |②---|
口口口口 |③---|
46
口口①口 |①---|
口口口口 |----|
口口口口 |----|
口口口口 |----|
47
口口口口 |①---|
口③口口 |----|
①②口口 |②---|
口口口口 |③---|
48
口①口② |①---|
口口口口 |----|
口口口口 |②---|
口口口口 |----|
49
口口口口 |①---|
口口③口 |----|
口口②① |②---|
口口口口 |③---|
50
②口①口 |①---|
口口口口 |----|
口口口口 |②---|
口口口口 |----|
51
口口口口 |①---|
口③口口 |----|
①②口口 |②---|
口口口口 |③---|
52
口①口② |①---|
口口口③ |----|
口口口口 |②---|
口口口口 |③---|
53
③口口口 |①---|
②口口口 |----|
口口口① |②---|
口口口口 |③---|
54
口口①口 |①---|
口口②口 |②---|
口口③口 |③---|
口口④口 |④---|
55
口①口口 |①---|
口②口口 |②---|
口③口口 |③---|
口④口口 |④---|
56
口口①口 |①---|
口口②口 |②---|
口口③口 |③---|
口口④口 |④---|
57
口①口口 |①---|
口②口口 |②---|
口③口口 |③---|
口④口口 |④---|
58
口口口口 |①---|
口口口口 |----|
口口口① |----|
口口口口 |----|
59
口口口口 |①---|
口口口① |----|
口口口口 |----|
口口口口 |----|
60
口口口口 |①---|
口口口口 |----|
①口口口 |----|
口口口口 |----|
61
口口口口 |①---|
①③③口 |----|
口②②口 |②---|
口口口口 |③---|
62
②①①② |①---|
口口口口 |----|
口口口口 |②---|
口口口口 |----|
63
口口口口 |①---|
口③③口 |----|
①②②① |②---|
口口口口 |③---|
64
②①①② |①---|
口口口口 |----|
口口口口 |②---|
口口口口 |----|
65
口口口口 |①---|
口③③口 |----|
①②②① |②---|
口口口口 |③---|
66
②①①② |①---|
口口口口 |----|
口口口口 |②---|
口口口口 |----|
67
口口口口 |①---|
口③③口 |----|
①②②① |②---|
口口口口 |③---|
68
②①①② |①---|
③口口③ |----|
口口口口 |②---|
口口口口 |③---|
69
③口口③ |①---|
口口口口 |----|
①②②① |②---|
口口口口 |③---|
70
口口①口 |①---|
口口②口 |②---|
口口③口 |③---|
口口④口 |④---|
71
口①口口 |①---|
口②口口 |②---|
口③口口 |③---|
口④口口 |④---|
72
口口①口 |①---|
口口②口 |②---|
口口③口 |③---|
口口④口 |④---|
73
口①口口 |①---|
口②口口 |②---|
口③口口 |③---|
口④口口 |④---|
74
口③③口 |①---|
口口口口 |----|
②口口① |②---|
口口口口 |--③-|
75
口口口口 |--①-|
口①①口 |--②-|
口②②口 |--③-|
口③③口 |----|
76
口口口口 |①---|
②口口① |----|
口口口口 |②---|
口③③口 |--③-|
77
④③③④ |--①-|
口②②口 |--②-|
口①①口 |--③-|
口口口口 |--④-|
78
口口口口 |----|
口口口口 |----|
口口口口 |----|
口口口口 |----|
79
口口口口 |①---|
口口口口 |----|
口①①口 |----|
口口口口 |----|
80
口口口口 |①---|
口①①口 |----|
口口口口 |----|
口口口口 |----|
81
口口④口 |①---|
口③口口 |②---|
口口②口 |③---|
口①口口 |④---|
82
口①口口 |①---|
口口②口 |----|
口口口口 |----|
口口口口 |②---|
83
口口口口 |①---|
口口口口 |----|
口①口口 |----|
口口口口 |----|
84
口口口口 |----|
口口口口 |----|
口口口口 |----|
口口口口 |----|
85
口口口口 |①---②-|
口③⑥口 |--③---|
口②⑤口 |④---⑤-|
口①④口 |--⑥---|
86
口口①口 |①---|
口口口口 |----|
口口口口 |----|
口口口口 |----|
87
口口口口 |①---|
口口口口 |----|
口①①口 |----|
口口口口 |----|
88
口口口口 |①---|
口①①口 |----|
口口口口 |----|
口口口口 |----|
89
口口口口 |①---|
口口口口 |----|
口①①口 |----|
口口口口 |----|
90
口①口口 |①---|
③口口口 |②---|
口口口② |③---|
口口④口 |④---|
91
口口④口 |①---|
口口口② |②---|
③口口口 |③---|
口①口口 |④---|
92
口口口口 |①---|
口①①口 |----|
口口口口 |----|
口口口口 |----|
93
口口④口 |①---|
口③口口 |②---|
口口②口 |③---|
口①①口 |④---|
94
口①口口 |①---|
②口口口 |----|
口口口口 |----|
口口口口 |②---|
95
口③③口 |①-②-|
口口①② |----|
口口口口 |③---|
口④④口 |④---|
96
⑤口口⑤ |①---|
口④④口 |②-③-|
①口②③ |--④-|
口口口口 |--⑤-|
97
口口口口 |--①-|
口口口口 |--②-|
①口②③ |③---|
口口口口 |----|


不确定度: 0

最終更新:2012年11月06日 23:03