SPEED KING

ADVANCED

Level: 6
BPM: 204
Notes: 406

1
口口口口 |----|
口口口口 |----|
口口口口 |----|
口口口口 |----|
2
①口口② |①---|
口口口口 |----|
口口口口 |②---|
口口口口 |----|
3
口①②口 |①---|
口口口口 |----|
口口口口 |②---|
口口口口 |----|
4
口口口口 |①---|
①口口② |----|
口口口口 |②---|
口口口口 |----|
5
口口口口 |①---|
口①②口 |----|
口口口口 |②---|
口口口口 |----|
6
口口口口 |①---|
①口口② |----|
口口口口 |②---|
口口口口 |----|
7
口口口口 |①---|
口①②口 |----|
口口口口 |②---|
口口口口 |----|
8
口口口口 |①---|
口①口② |----|
②口①口 |②---|
口口口口 |----|
9
口③③口 |①---|
口口口口 |②---|
口②口口 |③---|
口口①口 |----|
10
口口口口 |①---|
①口口② |----|
口口口口 |②---|
口口口口 |----|
11
口口口口 |①---|
口①②口 |----|
口口口口 |②---|
口口口口 |----|
12
口口口口 |①---|
口口口口 |----|
①口口② |②---|
口口口口 |----|
13
口口口口 |①---|
口口口口 |----|
口①②口 |②---|
口口口口 |----|
14
口口口口 |①---|
口口口口 |----|
①口口② |②---|
口口口口 |----|
15
口口口口 |①---|
口口口口 |----|
口①②口 |②---|
口口口口 |----|
16
口口口口 |①---|
口口口口 |----|
口口口口 |②---|
①口口② |----|
17
口口口口 |①---|
口口口口 |----|
口口口口 |②---|
口①②口 |----|
18
口口口口 |-------①|
口①②口 |----|
口②①口 |---②----|
口口口口 |----|
19
①口口② |①---|
口口口口 |----|
口口口口 |②---|
口口口口 |----|
20
口口口口 |----|
口①②口 |①---|
口②①口 |--②-|
口口口口 |----|
21
口口口口 |①---|
口口口口 |----|
口口口口 |②---|
①口口② |----|
22
口口口① |①---|
口口口② |----|
②口口口 |②---|
①口口口 |----|
23
②口口口 |①---|
①口口口 |----|
口口口① |②---|
口口口② |----|
24
口①②口 |①---|
口口口口 |----|
口口口口 |②---|
口②①口 |----|
25
口口口口 |①---|
①口口② |②---|
③口口④ |③---|
口口口口 |④---|
26
①口口口 |①---|
口口口口 |----|
口②②口 |②---|
口②②口 |----|
27
口口口① |①---|
口口口口 |----|
口②②口 |②---|
口②②口 |----|
28
口②②口 |①---|
口②②口 |----|
口口口口 |②---|
①口口口 |----|
29
口②②口 |①---|
口②②口 |----|
口口口口 |②---|
口口口① |----|
30
口口口④ |①---|
口口③口 |②---|
口②口口 |③---|
①口口口 |④---|
31
④口口口 |①---|
口③口口 |②---|
口口②口 |③---|
口口口① |④---|
32
口口口口 |①---|
口口口口 |②---|
①②③④ |③---|
口口口口 |④---|
33
口口口口 |①---|
④③②① |②---|
口口口口 |③---|
口口口口 |④---|
34
口②②口 |①---|
口②②口 |----|
口口口口 |②---|
①口口口 |----|
35
口②②口 |①---|
口②②口 |----|
口口口口 |②---|
口口口① |----|
36
①口口口 |①---|
口口口口 |----|
口②②口 |②---|
口②②口 |----|
37
口口口① |①---|
口口口口 |----|
口②②口 |②---|
口②②口 |----|
38
①口口口 |①---|
口②口口 |②---|
口口③口 |③---|
口口口④ |④---|
39
口口口① |①---|
口口②口 |②---|
口③口口 |③---|
④口口口 |④---|
40
口口口口 |①---|
①②③④ |②---|
口口口口 |③---|
口口口口 |④---|
41
口口口口 |①---|
口口口口 |②---|
①②③④ |③---|
口口口口 |④---|
42
口②②口 |①---|
口②②口 |----|
口口口口 |②---|
口①口口 |----|
43
口②②口 |①---|
口②②口 |----|
口口口口 |②---|
口口①口 |----|
44
①口口口 |①---|
口口口口 |----|
口口②② |②---|
口口②② |----|
45
口口口① |①---|
口口口口 |----|
②②口口 |②---|
②②口口 |----|
46
①口口② |①---|
口③④口 |②---|
口口口口 |③---|
口口口口 |④---|
47
口口口口 |①---|
口口口口 |②---|
①口口② |③---|
口③④口 |④---|
48
④口口④ |①---|
③口口③ |②---|
②口口② |③---|
①口口① |④---|
49
口口口口 |①---|
口③③口 |----|
口②②口 |②---|
口①①口 |③---|
50
口口①口 |①---|
口口口② |②---|
口口口③ |③---|
口口④口 |④---|
51
口④口口 |①---|
③口口口 |②---|
②口口口 |③---|
口①口口 |④---|
52
口口①口 |①---|
口口口② |②---|
口口口③ |③---|
口口④口 |④---|
53
口④口口 |①---|
③口口口 |②---|
②口口口 |③---|
口①口口 |④---|
54
口口①口 |①---|
口口口② |②---|
口口③口 |③---|
口口口④ |④---|
55
口①口口 |①---|
②口口口 |②---|
口③口口 |③---|
④口口口 |④---|
56
口口①口 |①---|
口口口② |②---|
口口口③ |③---|
口口④口 |④---|
57
口④口口 |①---|
③口口口 |②---|
②口口口 |③---|
口①口口 |④---|
58
口口①口 |①---|
口口口② |②---|
口口口③ |③---|
口口④口 |④---|
59
口④口口 |①---|
③口口口 |②---|
②口口口 |③---|
口①口口 |④---|
60
口口①口 |①---|
口口口② |②---|
口口③口 |③---|
口口口④ |④---|
61
口①口口 |①---|
②口口口 |②---|
口③口口 |③---|
④口口口 |④---|
62
口口口口 |①---|
口①②口 |----|
口②①口 |②---|
口口口口 |----|
63
口口口口 |①---|
口①②口 |----|
口②①口 |②---|
口口口口 |----|
64
①口口② |①---|
口口口口 |----|
口口口口 |②---|
②口口① |----|
65
①口口② |①---|
口口口口 |----|
口口口口 |②---|
②口口① |----|
66
①口口口 |①---|
③口口口 |②---|
②口口口 |③---|
④口口口 |④---|
67
口口口① |①---|
口口口③ |②---|
口口口② |③---|
口口口④ |④---|
68
口④①口 |①---|
口③②口 |②---|
口②③口 |③---|
口①④口 |④---|
69
①口口④ |①---|
②口口③ |②---|
③口口② |③---|
④口口① |④---|
70
①②③④ |①---|
口口口口 |②---|
口口口口 |③---|
④③②① |④---|
71
①②③④ |①---|
口口口口 |②---|
口口口口 |③---|
④③②① |④---|
72
口口口口 |①---|
①②③④ |②---|
④③②① |③---|
口口口口 |④---|
73
口口口口 |①---|
①②③④ |②---|
④③②① |③---|
口口口口 |④---|
74
①②③④ |①---|
口口口口 |②---|
口口口口 |③---|
④③②① |④---|
75
③④口口 |①---|
②口口① |②---|
①口口② |③---|
口口④③ |④---|
76
④口口② |①---|
口口口口 |②---|
①口口③ |③---|
口口口口 |④---|
77
口④④口 |①---|
口③③口 |②---|
口②②口 |③---|
口①①口 |④---|
78
口口④④ |①---|
③③口口 |②---|
口口②② |③---|
①①口口 |④---|
79
口口④④ |①---|
③③口口 |②---|
口口②② |③---|
①①口口 |④---|
80
④④口口 |①---|
口口③③ |②---|
②②口口 |③---|
口口①① |④---|
81
④④口口 |①---|
口口③③ |②---|
②②口口 |③---|
口口①① |④---|
82
口口口口 |①---|
口口口口 |----|
口②②口 |②---|
口①①口 |----|
83
口②②口 |①---|
口①①口 |----|
口口口口 |②---|
口口口口 |----|
84
口口口口 |①---|
口口口口 |----|
口②②口 |②---|
口①①口 |----|
85
口②②口 |①---|
口①①口 |----|
口口口口 |②---|
口口口口 |----|
86
口口口口 |①---|
口口口口 |----|
②②②② |②---|
①①①① |----|
87
②②②② |①---|
①①①① |----|
口口口口 |②---|
口口口口 |----|
88
④口口④ |①---|
③口口③ |②---|
②口口② |③---|
①口口① |④---|
89
口①①口 |①---|
口②②口 |②---|
③③④④ |③---|
口口口口 |④---|


不确定度: 0

最終更新:2012年12月03日 22:08