SPEED KING

EXTREME

Level: 7
BPM: 204
Notes: 576

1
口口口口 |----|
口口口口 |----|
口口口口 |----|
口口口口 |----|
2
①口②口 |①---|
③口④口 |②---|
口口口口 |③---|
口口口口 |④---|
3
口口口口 |①---|
口口口口 |②---|
①口②口 |③---|
③口④口 |④---|
4
口①口② |①---|
口③口④ |②---|
口口口口 |③---|
口口口口 |④---|
5
口口口口 |①---|
口口口口 |②---|
口①口② |③---|
口③口④ |④---|
6
①②③口 |①---|
口口口口 |②---|
口④④口 |③---|
口口口口 |④---|
7
口口口口 |①---|
口④④口 |②---|
口口口口 |③---|
口③②① |④---|
8
口口口口 |①---|
①口口② |②---|
③口口④ |③---|
口口口口 |④---|
9
口口口口 |①---|
③③③③ |②---|
口②②口 |③---|
口①①口 |----|
10
①②③④ |①---|
口口口口 |②---|
口口口口 |③---|
口口口口 |④---|
11
口口口口 |①---|
口口口口 |②---|
口口口口 |③---|
④③②① |④---|
12
①口口④ |①---|
口②③口 |②---|
口口口口 |③---|
口口口口 |④---|
13
口口口口 |①---|
口口口口 |②---|
①①②② |③---|
③③③③ |----|
14
①口②口 |①---|
③口④口 |②---|
口口口口 |③---|
口口口口 |④---|
15
口口口口 |①---|
口口口口 |②---|
①口②口 |③---|
③口④口 |④---|
16
口①口② |①---|
口③口④ |②---|
口口口口 |③---|
口口口口 |④---|
17
口口口口 |①---|
口口口口 |②---|
口①口② |③---|
口③口④ |④---|
18
口口口口 |-------①|
口①②口 |----|
口②①口 |---②----|
口口口口 |----|
19
①③④② |①---|
口口口口 |②---|
口口口口 |③---|
口口口口 |④---|
20
①口口② |----|
口①②口 |①---|
口②①口 |--②-|
②口口① |----|
21
口口口口 |①---|
①③④② |②---|
口口口口 |③---|
口口口口 |④---|
22
④口口① |①---|
③口口② |②---|
②口口③ |③---|
①口口④ |④---|
23
口①②③ |①---|
口口口④ |②---|
④口口口 |③---|
③②①口 |④---|
24
②口口口 |①---|
①③④口 |②---|
口④③① |③---|
口口口② |④---|
25
④口口① |①---|
③口口② |②---|
②口口③ |③---|
①口口④ |④---|
26
口④口口 |①---|
③口口口 |②---|
口②口口 |③---|
①口口口 |④---|
27
口口④④ |①---|
口口③③ |②---|
口口②② |③---|
口口①① |④---|
28
口口④口 |①---|
口口口③ |②---|
口口②口 |③---|
口口口① |④---|
29
④④口口 |①---|
③③口口 |②---|
②②口口 |③---|
①①口口 |④---|
30
口④口④ |①---|
③口③口 |②---|
口②口② |③---|
①口①口 |④---|
31
口④口④ |①---|
③口③口 |②---|
口②口② |③---|
①口①口 |④---|
32
①口①口 |①---|
口②口② |②---|
③口③口 |③---|
口④口④ |④---|
33
口①口① |①---|
②口②口 |②---|
口③口③ |③---|
④口④口 |④---|
34
④口口口 |①---|
口③口口 |②---|
②口口口 |③---|
口①口口 |④---|
35
口口④④ |①---|
口口③③ |②---|
口口②② |③---|
口口①① |④---|
36
口口口④ |①---|
口口③口 |②---|
口口口② |③---|
口口①口 |④---|
37
④④口口 |①---|
③③口口 |②---|
②②口口 |③---|
①①口口 |④---|
38
④口④口 |①---|
口③口③ |②---|
②口②口 |③---|
口①口① |④---|
39
口④口④ |①---|
③口③口 |②---|
口②口② |③---|
①口①口 |④---|
40
①口①口 |①---|
口②口② |②---|
③口③口 |③---|
口④口④ |④---|
41
口①口① |①---|
②口②口 |②---|
口③口③ |③---|
④口④口 |④---|
42
口口口口 |①---|
口②口④ |②---|
①口③口 |③---|
口口口口 |④---|
43
①①口口 |①---|
②②口口 |②---|
③③口口 |③---|
④④口口 |④---|
44
口口口口 |①---|
④口②口 |②---|
口③口① |③---|
口口口口 |④---|
45
口口①① |①---|
口口②② |②---|
口口③③ |③---|
口口④④ |④---|
46
④口口① |①---|
③口口② |②---|
②口口③ |③---|
①口口④ |④---|
47
口①②③ |①---|
口口口④ |②---|
④口口口 |③---|
③②①口 |④---|
48
②③④口 |①---|
①口口口 |②---|
口口口① |③---|
口④③② |④---|
49
口口口① |①---|
口③③口 |----|
口②②口 |②---|
①口口口 |③---|
50
口口②② |①---|
口口④④ |②---|
③口口口 |③---|
①口口口 |④---|
51
③口口口 |①---|
①口口口 |②---|
口口②② |③---|
口口④④ |④---|
52
口口口① |①---|
口口口③ |②---|
④④口口 |③---|
②②口口 |④---|
53
④④口口 |①---|
②②口口 |②---|
口口口① |③---|
口口口③ |④---|
54
口口口口 |①---|
②④②④ |②---|
③③①① |③---|
口口口口 |④---|
55
口口口口 |①---|
②④②④ |②---|
口口口口 |③---|
③③①① |④---|
56
口①口① |①---|
②口②口 |②---|
口③口③ |③---|
④口④口 |④---|
57
①口①口 |①---|
口②口② |②---|
③口③口 |③---|
口④口④ |④---|
58
口口①口 |①---|
口口口② |②---|
口口口③ |③---|
口口④口 |④---|
59
口④口口 |①---|
③口口口 |②---|
②口口口 |③---|
口①口口 |④---|
60
①口①口 |①---|
口②口② |②---|
③口③口 |③---|
口④口④ |④---|
61
口①口① |①---|
②口②口 |②---|
口③口③ |③---|
④口④口 |④---|
62
口口口口 |①---|
口①②口 |----|
口②①口 |②---|
口口口口 |----|
63
①口口② |①---|
口①②口 |----|
口②①口 |②---|
②口口① |----|
64
①口口② |①---|
口①②口 |----|
口②①口 |②---|
②口口① |----|
65
①①②② |①---|
口口口口 |----|
口口口口 |②---|
②②①① |----|
66
①①口口 |①---|
③③口口 |②---|
②②口口 |③---|
④④口口 |④---|
67
口口①① |①---|
口口③③ |②---|
口口②② |③---|
口口④④ |④---|
68
②①①② |①---|
口口口口 |②---|
④③③④ |③---|
口口口口 |④---|
69
口口口口 |①---|
②①①② |②---|
④③③④ |③---|
口口口口 |④---|
70
①②③④ |①---|
口口口口 |②---|
口口口口 |③---|
④③②① |④---|
71
口口口口 |①---|
①②③④ |②---|
④③②① |③---|
口口口口 |④---|
72
①口口④ |①---|
口②③口 |②---|
口③②口 |③---|
④口口① |④---|
73
口①④口 |①---|
口②③口 |②---|
口③②口 |③---|
口④①口 |④---|
74
口①口① |①---|
口②口② |②---|
③口③口 |③---|
④口④口 |④---|
75
①口①口 |①---|
②口②口 |②---|
口③口③ |③---|
口④口④ |④---|
76
①口口口 |①---|
口口口② |②---|
③口口口 |③---|
口口口④ |④---|
77
口①口口 |①---|
口口②口 |②---|
口③口口 |③---|
口口④口 |④---|
78
④④口口 |①---|
②②口口 |②---|
③③口口 |③---|
①①口口 |④---|
79
口口④④ |①---|
口口②② |②---|
口口③③ |③---|
口口①① |④---|
80
口④④口 |①---|
口②②口 |②---|
口③③口 |③---|
口①①口 |④---|
81
①口口① |①---|
②口口② |②---|
③口口③ |③---|
④口口④ |④---|
82
②口口④ |①---|
口①①口 |②---|
口③③口 |③---|
口口口口 |④---|
83
口口口口 |①---|
②口口④ |②---|
口③③口 |③---|
口①①口 |④---|
84
口③③口 |①---|
口①①口 |②---|
②口口④ |③---|
口口口口 |④---|
85
②口口④ |①---|
口③③口 |②---|
口①①口 |③---|
口口口口 |④---|
86
口口口口 |①---|
②口口④ |②---|
口③③口 |③---|
口①①口 |④---|
87
口①①口 |①---|
口③③口 |②---|
②口口④ |③---|
口口口口 |④---|
88
口④④口 |①---|
口③③口 |②---|
口②②口 |③---|
口①①口 |④---|
89
①④④① |①---|
②④④② |②---|
口③③口 |③---|
口③③口 |④---|


不确定度: 0

最終更新:2012年12月03日 22:07