抱いてセニョリータ

ADVANCED

Level: 4
BPM: 144
Notes: 290

1
口口口口 |----|
口口口口 |----|
口口口口 |----|
口口口口 |----|
2
②口口口 |①---|
口口口口 |----|
①①①① |②---|
口口口口 |----|
3
口口口口 |①---|
①口口口 |----|
②口口口 |②---|
口口口口 |----|
4
口口口② |①---|
口①①口 |----|
口口口口 |②---|
口口口口 |----|
5
口口口口 |①---|
口口口① |----|
口口口② |②---|
口口口口 |----|
6
②①①口 |①---|
③口口口 |②---|
④口口口 |③---|
口口口口 |④---|
7
口①①② |①---|
口口口③ |②---|
口口口④ |③---|
口口口口 |④---|
8
口口口口 |①---|
②①①口 |②---|
③口口口 |③---|
④口口口 |④---|
9
口口口口 |①---|
口①①② |②---|
口口口③ |③---|
口口口④ |④---|
10
②①①口 |①---|
③口口口 |②---|
④口口口 |③---|
口口口口 |④---|
11
口①①② |①---|
口口口③ |②---|
口口口④ |③---|
口口口口 |④---|
12
口口口口 |①---|
②口口② |②---|
口①①口 |----|
口口口口 |----|
13
②②①① |①---|
④④③③ |②---|
口口口口 |③---|
口口口口 |④---|
14
口口口口 |①---|
口④③② |②---|
①口口口 |③---|
口口口口 |④---|
15
口口口口 |①---|
①口口口 |②---|
口④③② |③---|
口口口口 |④---|
16
口口①口 |①---|
口口②口 |②---|
口口③口 |③---|
口口④口 |④---|
17
口①口口 |①---|
口②口口 |②---|
口③口口 |③---|
口④口口 |④---|
18
①口口口 |①---|
口④③② |②---|
口口口口 |③---|
口口口口 |④---|
19
②③④① |①---|
口口口口 |②---|
口口口口 |③---|
口口口口 |④---|
20
口口④口 |①---|
口口③口 |②---|
口口②口 |③---|
口口①口 |④---|
21
口④口口 |①---|
口③口口 |②---|
口②口口 |③---|
口①口口 |④---|
22
口④④口 |①---|
口③③口 |②-③-|
口②②口 |----|
口①①口 |④---|
23
③口口① |①---|
④口口② |②---|
口口口口 |③---|
口口口口 |④---|
24
口①①口 |①-②-|
口②②口 |--③-|
口③③口 |----|
口④④口 |④---|
25
口口口口 |①---|
口口口口 |②---|
②口口④ |③---|
①口口③ |④---|
26
①口口口 |①---|
口①口口 |----|
口口②口 |②---|
口口口② |----|
27
口口口② |①---|
口口②口 |----|
口①口口 |②---|
①口口口 |----|
28
口①①口 |①---|
口②②口 |②---|
口③③口 |③---|
口④④口 |④---|
29
口口口口 |①---|
①①①① |----|
口口口口 |----|
口口口口 |----|
30
口口口口 |①-②-|
①②④③ |--③-|
①②④③ |④---|
口口口口 |----|
31
口①口口 |①---|
②口口口 |②---|
③口口口 |③---|
口④口口 |④---|
32
口口口口 |①---|
口④④口 |②---|
口③③② |③---|
口口①口 |④---|
33
口口①口 |①---|
口口口② |②---|
口口口③ |③---|
口口④口 |④---|
34
口口口口 |①---|
④④④④ |②---|
②③③口 |③---|
口①口口 |④---|
35
②④③① |①---|
口口口口 |②---|
口口口口 |③---|
口口口口 |④---|
36
口口口口 |①---|
②④③① |②---|
口口口口 |③---|
口口口口 |④---|
37
①口口④ |①---|
②口口③ |②---|
③口口② |③---|
④口口① |④---|
38
口口口口 |①---|
②①①② |----|
③①①③ |②---|
口口口口 |③---|
39
口①口口 |①---|
②口口口 |②---|
③口口口 |③---|
口④口口 |④---|
40
口口口口 |①---|
口④④口 |②---|
口③③② |③---|
口口①口 |④---|
41
口口①口 |①---|
口口口② |②---|
口口口③ |③---|
口口④口 |④---|
42
口口口口 |①---|
④④④④ |②---|
②③③口 |③---|
口①口口 |④---|
43
④③②① |①---|
口口口口 |②---|
口口口口 |③---|
口口口口 |④---|
44
口口口口 |①---|
口口口口 |②---|
口口口口 |③---|
①②③④ |④---|
45
口②③口 |①---|
①口口④ |②---|
④口口① |③---|
口③②口 |④---|
46
口口口口 |①---|
口①①口 |----|
口①①口 |----|
口口口口 |----|
47
④口口② |①---|
口③①口 |②---|
口①③口 |③---|
②口口④ |④---|
48
口口口口 |①---|
①口口① |----|
①口口① |----|
口口口口 |----|
49
②①①口 |①---|
③口口口 |②---|
④口口口 |③---|
口口口口 |④---|
50
口①①② |①---|
口口口③ |②---|
口口口④ |③---|
口口口口 |④---|
51
口口口口 |①---|
②①①口 |②---|
③口口口 |③---|
④口口口 |④---|
52
口口口口 |①---|
口①①② |②---|
口口口③ |③---|
口口口④ |④---|
53
②①①口 |①---|
③口口口 |②---|
④口口口 |③---|
口口口口 |④---|
54
口①①② |①---|
口口口③ |②---|
口口口④ |③---|
口口口口 |④---|
55
口口口口 |①---|
②②②② |②---|
口口口口 |----|
口①①口 |----|
56
④口口① |①---|
③口口② |②---|
②口口③ |③---|
①口口④ |④---|
57
口口口口 |①---|
②②②② |--②-|
口①①口 |----|
口①①口 |----|


不确定度: 0

最終更新:2012年12月03日 22:06