抱いてセニョリータ

EXTREME

Level: 6
BPM: 144
Notes: 405

1
口口口口 |----|
口口口口 |----|
口口口口 |----|
口口口口 |----|
2
口口口口 |①---|
①①①① |----|
②②②② |②---|
口口口口 |----|
3
①③④② |①---|
口口口口 |②---|
口口口口 |③---|
口口口口 |④---|
4
口口口口 |①---|
①①①① |----|
②②②② |②---|
口口口口 |----|
5
口口口口 |①---|
①③④② |②---|
口口口口 |③---|
口口口口 |④---|
6
口口口口 |①---|
口④③② |②---|
①①①① |③---|
口口口口 |④---|
7
口①口① |①---|
②口②口 |②---|
口③口③ |③---|
④口④口 |④---|
8
口口口口 |①---|
②③④① |②---|
口口口口 |③---|
口口口口 |④---|
9
①口①口 |①---|
口②口② |②---|
③口③口 |③---|
口④口④ |④---|
10
口口口口 |①---|
①④③② |②---|
口口口口 |③---|
口口口口 |④---|
11
口口口口 |①---|
口口口口 |②---|
②③④① |③---|
口口口口 |④---|
12
②口口② |①---|
口①①口 |②---|
口④③口 |③---|
口口口口 |④---|
13
②口口② |①---|
③①①③ |②---|
④口口④ |③---|
口口口口 |④---|
14
口④④口 |①---|
口③③口 |②---|
口②②口 |③---|
口①①口 |④---|
15
③口口① |①---|
②口口④ |②---|
口口口口 |③---|
口口口口 |④---|
16
口④④口 |①---|
③口口③ |②---|
口②②口 |③---|
①口口① |④---|
17
①口口① |①---|
②口口② |②---|
③口口③ |③---|
④口口④ |④---|
18
口①①口 |①---|
②口口② |②---|
口③③口 |③---|
④口口④ |④---|
19
口③③口 |①---|
口口口口 |②---|
口②②口 |③---|
口①①口 |----|
20
②口口④ |①---|
口①③口 |②---|
口③①口 |③---|
④口口② |④---|
21
口口口口 |①---|
①口口① |----|
①口口①
口口口口

口口口口
③口口③
口口口口 |②---|
②口口② |③---|
22
③③③③ |①---|
口②②口 |②-③-|
口①①口 |----|
④口口④ |④---|
23
口③③口 |①---|
②③③② |②---|
①口口① |③---|
口口口口 |----|
24
③③③③ |①-②-|
口②②口 |--③-|
口①①口 |----|
④口口④ |④---|
25
口③③口 |①---|
②③③② |②---|
①口口① |③---|
口口口口 |----|
26
①②③④ |①---|
口口口口 |②---|
口口口口 |③---|
④③②① |④---|
27
①口口④ |①---|
②口口③ |②---|
③口口② |③---|
④口口① |④---|
28
口①①口 |①---|
口②②口 |②---|
口③③口 |③---|
口④④口 |④---|
29
①①①① |①---|
口口口口 |----|
口②②口 |②---|
口口口口 |----|
30
①①②② |①-②-|
①①②② |--③-|
③③④④ |④---|
③③④④ |----|
31
口③②① |①-②-|
④⑤⑥口 |③-④-|
口口⑧⑦ |⑤-⑥-|
口口口口 |⑦-⑧-|
32
口口口口 |①-②-|
口⑥⑥口 |③-④-|
⑤①口⑤ |⑤---|
②③④口 |⑥---|
33
①②③口 |①-②-|
口⑥⑤④ |③-④-|
⑦⑧口口 |⑤-⑥-|
口口口口 |⑦-⑧-|
34
口口口口 |①-②-|
口⑥⑥口 |③-④-|
⑤口①⑤ |⑤---|
口④③② |⑥---|
35
口口口口 |①---|
口口③① |②---|
口口④② |③---|
口口口口 |④---|
36
口口口口 |①---|
③①口口 |②---|
④②口口 |③---|
口口口口 |④---|
37
口②③④ |①---|
口①口口 |②---|
口口①口 |③---|
④③②口 |④---|
38
口口口口 |①---|
口①①口 |----|
口①①口
口口口口

口口口口
口口口口
③③③③ |②---|
②②②② |③---|
39
口③②① |①-②-|
④⑤⑥口 |③-④-|
口口⑧⑦ |⑤-⑥-|
口口口口 |⑦-⑧-|
40
口口口口 |①-②-|
口口口口 |③-④-|
口①口口
②③④口

口口口口
⑤⑤⑤⑤
⑥⑥⑥⑥ |⑤---|
口口口口 |⑥---|
41
①②③口 |①-②-|
口⑥⑤④ |③-④-|
⑦⑧口口 |⑤-⑥-|
口口口口 |⑦-⑧-|
42
口口口口 |①-②-|
口口口口 |③-④-|
口口①口
口④③②

口口口口
⑤⑤⑤⑤
⑥⑥⑥⑥ |⑤---|
口口口口 |⑥---|
43
①①口口 |①---|
②②口口 |②---|
③③口口 |③---|
④④口口 |④---|
44
口口①① |①---|
口口②② |②---|
口口③③ |③---|
口口④④ |④---|
45
口④①口 |①---|
③口口② |②---|
②口口③ |③---|
口①④口 |④---|
46
口口口口 |①---|
口①①口 |----|
口①①口 |----|
口口口口 |----|
47
口②③④ |①---|
口①口口 |②---|
口口①口 |③---|
④③②口 |④---|
48
口口口口 |①---|
①①①① |----|
口口口口 |----|
口口口口 |----|
49
口口口口 |①---|
①④③② |②---|
口口口口 |③---|
口口口口 |④---|
50
口①口① |①---|
②口②口 |②---|
口③口③ |③---|
④口④口 |④---|
51
口口口口 |①---|
②③④① |②---|
口口口口 |③---|
口口口口 |④---|
52
①口①口 |①---|
口②口② |②---|
③口③口 |③---|
口④口④ |④---|
53
口口口口 |①---|
①④③② |②---|
口口口口 |③---|
口口口口 |④---|
54
口口口口 |①---|
口口口口 |②---|
②③④① |③---|
口口口口 |④---|
55
口口口口 |①---|
②②②② |②---|
口口口口 |----|
口①①口 |----|
56
口②③④ |①---|
口①口口 |②---|
口口①口 |③---|
④③②口 |④---|
57
口口口口 |①---|
②口口② |--②-|
①②②① |----|
口口口口 |----|


不确定度: 0

最終更新:2012年12月03日 22:06