Real voice

BASIC

Level: 3
BPM: 131
Notes: 173

1
口口口口 |----|
口口口口 |----|
口口口口 |----|
口口口口 |----|
2
①口口口 |①---|
口②口口 |----|
口口口口 |②---|
口口口口 |----|
3
口口口② |①---|
口口①口 |----|
口口口口 |②---|
口口口口 |----|
4
口口口口 |①---|
口口口口 |----|
口②口口 |②---|
①口口口 |----|
5
口口口口 |①---|
口口口口 |----|
口口①口 |②---|
口口口② |----|
6
口口口口 |①---|
①②③④ |②---|
口口口口 |③---|
口口口口 |④---|
7
口口口口 |①---|
口口口口 |②---|
①②③④ |③---|
口口口口 |④---|
8
口口口口 |①---|
①②③④ |②---|
口口口口 |③---|
口口口口 |④---|
9
口口口口 |①---|
口口口口 |②---|
①②③④ |③---|
口口口口 |④---|
10
口口口口 |①---|
①口②③ |----|
口口口口 |--②-|
口口口口 |--③-|
11
口口口口 |----|
口口口口 |----|
口口口口 |----|
口口口口 |----|
12
口口口口 |①---|
口口口口 |----|
④③②① |②-③-|
口口口口 |--④-|
13
口口口口 |----|
口口口口 |----|
口口口口 |----|
口口口口 |----|
14
口口口口 |①---|
口③③口 |②---|
①口口② |③---|
口口口口 |----|
15
①②③④ |①---|
口口口口 |②---|
口口口口 |③---|
口口口口 |④---|
16
口口口口 |①---|
①②③④ |②---|
口口口口 |③---|
口口口口 |④---|
17
①口口④ |①---|
口②③口 |②---|
口口口口 |③---|
口口口口 |④---|
18
口口口口 |①---|
口口口口 |②---|
①口口④ |③---|
口②③口 |④---|
19
①②③④ |①---|
口口口口 |②---|
口口口口 |③---|
口口口口 |④---|
20
口口口口 |①---|
①②③④ |②---|
口口口口 |③---|
口口口口 |④---|
21
口口口口 |①---|
①口口④ |②---|
口②③口 |③---|
口口口口 |④---|
22
口口口口 |①---|
口口口口 |②---|
①口口④ |③---|
口②③口 |④---|
23
口②②口 |①---|
口口口口 |----|
口①口口 |②---|
口口口口 |----|
24
口②②口 |①---|
口口口口 |----|
口口①口 |②---|
口口口口 |----|
25
口口口口 |①---|
①口②口 |----|
口口口口 |②---|
口口口口 |----|
26
口口口口 |①---|
口口口口 |----|
①口②口 |②---|
口口口口 |----|
27
口口口口 |①---|
口②口① |----|
口口口口 |②---|
口口口口 |----|
28
口口口口 |①---|
口口口口 |----|
口②口① |②---|
口口口口 |----|
29
②口口② |①---|
口①①口 |----|
口口口口 |②---|
口口口口 |----|
30
口口口口 |①---|
①口口① |----|
②口口② |②---|
口口口口 |----|
31
口①口口 |①---|
口口②口 |②---|
口③口口 |③---|
口口④口 |④---|
32
口①口口 |①---|
口口②口 |②---|
口③口口 |③---|
口口④口 |④---|
33
①②③④ |①---|
口口口口 |②---|
口口口口 |③---|
口口口口 |④---|
34
口口口口 |①---|
口口口口 |②---|
口口口口 |③---|
①②③④ |④---|
35
口口①口 |①---|
口②口口 |②---|
口口③口 |③---|
口④口口 |④---|
36
口口①口 |①---|
口②口口 |②---|
口口③口 |③---|
口④口口 |④---|
37
①②③④ |①---|
口口口口 |②---|
口口口口 |③---|
口口口口 |④---|
38
口口口口 |①---|
口口口口 |②---|
口口口口 |③---|
①②③④ |④---|
39
口②④口 |①---|
口口口口 |②---|
口①③口 |③---|
口口口口 |④---|
40
①口口口 |①---|
口②口口 |②---|
口口③口 |③---|
口口口④ |④---|
41
口②④口 |①---|
口口口口 |②---|
口①③口 |③---|
口口口口 |④---|
42
口口口① |①---|
口口②口 |②---|
口③口口 |③---|
④口口口 |④---|
43
②口口④ |①---|
口口口口 |②---|
①口口③ |③---|
口口口口 |④---|
44
⑤⑤①口 |①---|
口②口口 |②---|
口口③口 |③---|
口④口口 |④-⑤-|
45
口口①① |--①-|
②②③③ |--②-|
口④④口 |--③-|
口口口口 |--④-|
46
①①②② |----|
口口口口 |----|
口口口口 |----|
口口口口 |①-②-|
47
口口口口 |----|
口口口口 |----|
口口口口 |----|
口口口口 |----|
48
口②③口 |①---|
①口口④ |②---|
口口口口 |③---|
口口口口 |④---|
49
口口口口 |①---|
口口口口 |②---|
①口口④ |③---|
口②③口 |④---|
50
口口口口 |①---|
口口口口 |②---|
口②③口 |③---|
①口口④ |④---|
51
口口口口 |①---|
口①①口 |----|
口口口口 |----|
口口口口 |----|


不确定度: 0

最終更新:2012年12月03日 22:03