Real voice

ADVANCED

Level: 4
BPM: 131
Notes: 258

1
口口口口 |----|
口口口口 |----|
口口口口 |----|
口口口口 |----|
2
口①口口 |①---|
口口②口 |②---|
口③口口 |③---|
口口④口 |④---|
3
口①口口 |①---|
口口②口 |②---|
口③口口 |③---|
口口④口 |④---|
4
口口口口 |①---|
口①②口 |②---|
口④③口 |③---|
口口口口 |④---|
5
①口口① |①---|
口口口口 |----|
口口口口 |②---|
②口口② |----|
6
①口口口 |①---|
口②口口 |②---|
③口口口 |③---|
口④口口 |④---|
7
口口口① |①---|
口口②口 |②---|
口口口③ |③---|
口口④口 |④---|
8
口②③口 |①---|
①口口④ |②---|
口口口口 |③---|
口口口口 |④---|
9
口口口口 |①---|
口口口口 |②---|
④口口① |③---|
口③②口 |④---|
10
口③③口 |①---|
口②②口 |----|
口①①口 |--②-|
口口口口 |--③-|
11
口口口口 |----|
口口口口 |----|
口口口口 |----|
口口口口 |----|
12
口⑤⑤口 |①-②-|
口④④口 |----|
②③③② |③-④-|
口①①口 |--⑤-|
13
口口口口 |----|
口口口口 |----|
口口口口 |----|
口口口口 |----|
14
口①口口 |①-②-|
口口②口 |③-④-|
⑤③口⑤ |⑤---|
口口④口 |----|
15
口②②口 |①---|
①④④口 |②---|
口口口③ |③---|
口口口口 |④---|
16
口口口口 |①---|
口④④口 |②---|
口②②③ |③---|
①口口口 |④---|
17
口②③口 |①---|
①口口④ |②---|
口口口口 |③---|
口口口口 |④---|
18
口口口口 |①---|
口口口口 |②---|
④口口① |③---|
口③②口 |④---|
19
口②②口 |①---|
①④④口 |②---|
口口口③ |③---|
口口口口 |④---|
20
口口口口 |①---|
口④④口 |②---|
口②②③ |③---|
①口口口 |④---|
21
口②①口 |①---|
③口口口 |②---|
④口口口 |③---|
口口口口 |④---|
22
口口口口 |①---|
口口口④ |②---|
口口口③ |③---|
口①②口 |④---|
23
口①①口 |①---|
②口口② |----|
口口口口 |②---|
口口口口 |----|
24
口口口口 |①---|
口口口口 |----|
①口口① |②---|
口②②口 |----|
25
口口②④ |①---|
①③口口 |②---|
口口口口 |③---|
口口口口 |④---|
26
口口口口 |①---|
口口口口 |②---|
④②口口 |③---|
口口③① |④---|
27
口口口口 |①---|
②①①② |----|
口口口口 |②---|
口口口口 |----|
28
口口口口 |①---|
口口口口 |----|
①口口① |②---|
口②②口 |----|
29
口口口② |①---|
③口口口 |----|
口①①口 |②---|
口口口口 |③---|
30
口口口口 |①---|
口④④口 |②---|
口③③① |③---|
②口口口 |④---|
31
口④①口 |①---|
③口口② |②---|
②口口③ |③---|
口①④口 |④---|
32
口口口口 |①---|
④②②④ |②---|
③①①③ |③---|
口口口口 |④---|
33
①口口④ |①---|
口②③口 |②---|
口口口口 |③---|
口口口口 |④---|
34
口口口口 |①---|
口口口口 |②---|
口②③口 |③---|
①口口④ |④---|
35
口①④口 |①---|
②口口③ |②---|
③口口② |③---|
口④①口 |④---|
36
口口口口 |①---|
④②②④ |②---|
③①①③ |③---|
口口口口 |④---|
37
④口口① |①---|
口③②口 |②---|
口口口口 |③---|
口口口口 |④---|
38
口口口口 |①---|
口口口口 |②---|
口③②口 |③---|
④口口① |④---|
39
①①②② |①-②-|
口口口口 |----|
口口口口 |③-④-|
③③④④ |----|
40
口③④口 |①---|
②口口① |②---|
①口口② |③---|
口④③口 |④---|
41
③③④④ |①-②-|
口口口口 |----|
①①②② |③-④-|
口口口口 |----|
42
口③④口 |①---|
②口口① |②---|
①口口② |③---|
口④③口 |④---|
43
口口口口 |①-②-|
①①②② |----|
口口口口 |③-④-|
③③④④ |----|
44
口④③口 |①---|
①⑤⑤② |②---|
②口口① |③---|
口③④口 |④-⑤-|
45
口④④口 |--①-|
③口口③ |--②-|
②①①② |--③-|
口口口口 |--④-|
46
口口口口 |----|
①口口② |----|
口①②口 |----|
口口口口 |①-②-|
47
④口口口 |①---|
③口口口 |②---|
②口口口 |③---|
①口口口 |④---|
48
口口口④ |①---|
口口口③ |②---|
口口口② |③---|
口口口① |④---|
49
口①口口 |①---|
口口②口 |②---|
口③口口 |③---|
口口④口 |④---|
50
口口①口 |①---|
口②口口 |②---|
口口③口 |③---|
口④口口 |④---|
51
口口口口 |①---|
①①①① |----|
口口口口 |----|
口口口口 |----|


不确定度: 0

最終更新:2012年12月03日 22:02