Real voice

EXTREME

Level: 5
BPM: 131
Notes: 349

1
口口口口 |----|
口口口口 |----|
口口口口 |----|
口口口口 |----|
2
①口口口 |①---|
口②口口 |②---|
口口③口 |③---|
口口口④ |④---|
3
口口口口 |①---|
口口口② |②---|
口口口①
口口口口

口口口③
口口口口
⑤口口⑤ |③---|
口④④口 |④-⑤-|
4
④④④④ |----|
②③③② |①-②-|
口①①口 |----|
口口口口 |③-④-|
5
口口口口 |----|
①①①① |----|
口口口口 |①---|
口口口口 |----|
6
①口口② |①---|
口③④口 |②---|
口口口口 |③---|
口口口口 |④---|
7
口口口口 |①---|
口口口口 |②---|
①口口② |③---|
口③④口 |④---|
8
口①②口 |①---|
③口口④ |②---|
口口口口 |③---|
口口口口 |④---|
9
口口口口 |①---|
口口口口 |②---|
口①②口 |③---|
③口口④ |④---|
10
口口口口 |①---|
口口口口 |----|
口①①口
口口口口

②口口口
口②口口
口口③口 |--②-|
口口口③ |--③-|
11
口口口口 |----|
口口口口 |----|
口口口口 |----|
口口口口 |----|
12
口口口口 |①-②-|
②口口② |----|
口①①口
口口口口

口口口口
⑤⑤⑤⑤
④口口④ |③-④-|
口③③口 |--⑤-|
13
口口口口 |----|
口口口口 |----|
口口口口 |----|
口口口口 |----|
14
口④①口 |①-②-|
③⑤⑤② |③-④-|
②⑤⑤③ |⑤---|
口①④口 |----|
15
①口口② |①-②-|
口③④口 |③-④-|
⑤口口⑥ |⑤-⑥-|
口⑦⑧口 |⑦-⑧-|
16
口①②口 |①-②-|
③口口④ |③-④-|
口⑤⑥口 |⑤-⑥-|
⑦口口⑧ |⑦-⑧-|
17
口⑧⑥口 |①-②-|
①口口④ |③-④-|
③口口② |⑤-⑥-|
口⑤⑦口 |⑦-⑧-|
18
口口口口 |①-②-|
②⑧⑤③ |③-④-|
④⑥⑦① |⑤-⑥-|
口口口口 |⑦-⑧-|
19
口①②口 |①-②-|
③口口④ |③-④-|
口⑤⑥口 |⑤-⑥-|
⑦口口⑧ |⑦-⑧-|
20
①口口② |①-②-|
口③④口 |③-④-|
⑤口口⑥ |⑤-⑥-|
口⑦⑧口 |⑦-⑧-|
21
口⑤⑥口 |①-②-|
⑦①②⑧ |③-④-|
口③④口 |⑤-⑥-|
口口口口 |⑦-⑧-|
22
口口口口 |①-②-|
口⑤⑥口 |③-④-|
①⑦⑧② |⑤-⑥-|
口③④口 |⑦-⑧-|
23
口④④口 |①---|
③口口③ |②---|
②口口② |③---|
口①①口 |④---|
24
①口口① |①---|
口②②口 |②---|
口③③口 |③---|
④口口④ |④---|
25
口口②② |①---|
③口口口 |②---|
①口口口 |③---|
口口④④ |④---|
26
②②口口 |①---|
口口口③ |②---|
口口口① |③---|
④④口口 |④---|
27
口口口口 |①---|
②②②② |----|
口①①口 |②---|
口口口口 |----|
28
口①①② |①---|
口口口③ |----|
③口口口 |②---|
②口口口 |③---|
29
②③④口 |①---|
①口口口 |②---|
口口口① |③---|
口④③② |④---|
30
口③③口 |①---|
口①①口 |②---|
口②②口 |③---|
口④④口 |④---|
31
①②③④ |①---|
口口口口 |②---|
口口口① |③---|
口④③② |④---|
32
口②②口 |①---|
②③③④ |②---|
②①①④ |③---|
口④④口 |④---|
33
①口口口 |①---|
口②口口 |②---|
③口口口 |③---|
口④口口 |④---|
34
口口口① |①---|
口口②口 |②---|
口口口③ |③---|
口口④口 |④---|
35
④③②① |①---|
口口口口 |②---|
①口口口 |③---|
②③④口 |④---|
36
口②②口 |①---|
②③③④ |②---|
②①①④ |③---|
口④④口 |④---|
37
①口口口 |①---|
口②口口 |②---|
③口口口 |③---|
口④口口 |④---|
38
口口口① |①---|
口口②口 |②---|
口口口③ |③---|
口口④口 |④---|
39
②②②② |①-②-|
④④④④ |----|
口①①口 |③-④-|
口③③口 |----|
40
①口②口 |①---|
口④③口 |②---|
口③④口 |③---|
口②口① |④---|
41
②②②② |①-②-|
④④④④ |----|
口③③口 |③-④-|
口①①口 |----|
42
口②口① |①---|
口③④口 |②---|
口④③口 |③---|
①口②口 |④---|
43
②②②② |①-②-|
④④④④ |----|
口③③口 |③-④-|
口①①口 |----|
44
①②③④ |①---|
⑤口口口 |②---|
口⑤口口 |③---|
④③②① |④-⑤-|
45
③口口③ |--①-|
口④④① |--②-|
口口①口 |--③-|
口②②口 |--④-|
46
口口口口 |----|
②②②② |----|
①①①① |----|
口口口口 |①-②-|
47
①②③④ |①---|
口口口口 |②---|
口口口口 |③---|
口口口口 |④---|
48
口口口口 |①---|
口口口口 |②---|
④口口① |③---|
口③②口 |④---|
49
①口口② |①---|
③口口④ |②---|
口口口口 |③---|
口口口口 |④---|
50
口口口口 |①---|
口口口口 |②---|
口①②口 |③---|
口③④口 |④---|
51
①①①① |①---|
①①①① |----|
口口口口 |----|
口口口口 |----|


不确定度: 0

最終更新:2012年12月03日 22:02