POP STAR

BASIC

Level: 1
BPM: 139
Notes: 168

1
口口口口 |----|
口口口口 |----|
口口口口 |----|
口口口口 |----|
2
口口口口 |①---|
①口口口 |----|
口口口口 |----|
口口口口 |----|
3
口口口口 |①---|
口①口口 |----|
口口口口 |----|
口口口口 |----|
4
口口口口 |①---|
口口①口 |----|
口口口口 |----|
口口口口 |----|
5
口口口口 |①---|
口口口① |----|
口口口口 |----|
口口口口 |----|
6
口口口口 |①---|
口口口口 |----|
口口口口 |----|
口口口① |----|
7
口口口口 |①---|
口口口口 |----|
口口口口 |----|
①口口口 |----|
8
口口口口 |①---|
口口口口 |----|
口②口口 |②---|
口口①口 |----|
9
口②②口 |①---|
口口①口 |----|
口口口口 |②---|
口口口口 |----|
10
口口口口 |①---|
①口口口 |----|
口口口口 |----|
口口口口 |----|
11
口口口口 |①---|
口①口口 |----|
口口口口 |----|
口口口口 |----|
12
口口口口 |①---|
口口①口 |----|
口口口口 |----|
口口口口 |----|
13
口口口口 |①---|
口口口① |----|
口口口口 |----|
口口口口 |----|
14
口口口口 |①---|
口口口口 |----|
口口口① |----|
口口口口 |----|
15
口口口口 |①---|
口口口口 |----|
口口①口 |----|
口口口口 |----|
16
口口口口 |①---|
口口口口 |----|
口①口口 |----|
口口口口 |----|
17
口口口口 |①---|
口口口口 |----|
①口口口 |----|
口口口口 |----|
18
口口口口 |①---|
口口口口 |----|
口口②① |②---|
口口口口 |----|
19
口口口口 |①---|
口口口口 |----|
②①口口 |②---|
口口口口 |----|
20
口口口口 |①---|
①②口口 |----|
口口口口 |②---|
口口口口 |----|
21
口口口口 |①---|
口口①② |----|
口口口口 |②---|
口口口口 |----|
22
口口②① |①---|
口口口口 |----|
口口口口 |②---|
口口口口 |----|
23
②①口口 |①---|
口口口口 |----|
口口口口 |②---|
口口口口 |----|
24
口①①口 |①---|
口②②口 |----|
口口口口 |②---|
口口口口 |----|
25
口口口口 |①---|
口口口口 |----|
口①①口 |②---|
口②②口 |----|
26
口②①口 |①---|
口口口口 |----|
口口口口 |②---|
口口口口 |----|
27
口口口口 |①---|
口②①口 |----|
口口口口 |②---|
口口口口 |----|
28
口口口口 |①---|
口口口口 |----|
口②①口 |②---|
口口口口 |----|
29
口口口口 |①---|
口口口口 |----|
口口口口 |②---|
口②①口 |----|
30
口口口口 |①---|
口口口口 |----|
②口口口 |②---|
①口口口 |----|
31
②口口口 |①---|
①口口口 |----|
口口口口 |②---|
口口口口 |----|
32
口口口① |①---|
口口口② |----|
口口口口 |②---|
口口口口 |----|
33
口口口口 |①---|
口口口口 |----|
口口口① |②---|
口口口② |----|
34
口口口口 |----|
口口口口 |----|
口①①口 |①---|
口口口口 |----|
35
口口口口 |①---|
口口口口 |----|
口口口口 |②---|
口②①口 |----|
36
口口口口 |①---|
②口口口 |----|
①口口口 |②---|
口口口口 |----|
37
口①②口 |①---|
口口口口 |----|
口口口口 |②---|
口口口口 |----|
38
口口②口 |①---|
口口口① |----|
口口口口 |②---|
口口口口 |----|
39
口①口口 |①---|
口口②口 |----|
口口口口 |②---|
口口口口 |----|
40
口口口口 |①---|
口①口口 |----|
口口②口 |②---|
口口口口 |----|
41
口口口口 |①---|
口口口口 |----|
口①口口 |②---|
口口②口 |----|
42
口口口口 |①---|
口②②口 |----|
口口口口 |②---|
口①口口 |----|
43
口口口口 |----|
①口口口 |----|
②口口口 |①---|
口口口口 |②---|
44
口口口口 |①---|
口②②③ |②---|
口①①④ |③---|
口口口口 |④---|
45
口口④③ |①---|
口②②口 |②---|
口①①口 |③---|
口口口口 |④---|
46
②①口口 |①---|
③④口口 |②---|
口口口口 |③---|
口口口口 |④---|
47
口口口口 |①---|
③口①② |②---|
④口口口 |③---|
口口口口 |④---|
48
口口口口 |①---|
口②②③ |②---|
口①①④ |③---|
口口口口 |④---|
49
口③③口 |①---|
口②②口 |②---|
口①①口 |③---|
口口口口 |----|
50
①口口① |①---|
②口口② |----|
口口口口 |②---|
口口口口 |----|
51
口口口口 |①---|
口口口口 |----|
①口口①
口口口口

口口口口
②口口口
③口口口 |②---|
口口口口 |③---|
52
口口口口 |①---|
口②②③ |②---|
口①①④ |③---|
口口口口 |④---|
53
口口④③ |①---|
口②②口 |②---|
口①①口 |③---|
口口口口 |④---|
54
②①口口 |①---|
③④口口 |②---|
口口口口 |③---|
口口口口 |④---|
55
口口口口 |①---|
③口①② |②---|
④口口口 |③---|
口口口口 |④---|
56
口口口口 |①---|
口②②③ |②---|
口①①④ |③---|
口口口口 |④---|
57
口③③口 |①---|
口②②口 |②---|
口①①口 |③---|
口口口口 |----|
58
①口口① |①---|
②口口② |----|
口口口口 |②---|
口口口口 |----|
59
口口口口 |①---|
口口口口 |----|
①③③① |②---|
口②②口 |③---|
60
口②②口 |①---|
口①①口 |②---|
口口口口 |----|
口口口口 |----|
61
①口口① |①---|
口口口口 |----|
口口口口 |----|
口口口口 |----|
62
口口口口 |①---|
①口口① |----|
口口口口 |----|
口口口口 |----|
63
口口口口 |①---|
口口口口 |----|
①口口① |----|
口口口口 |----|


不确定度: 0

最終更新:2012年12月03日 22:02