POP STAR

ADVANCED

Level: 4
BPM: 139
Notes: 309

1
口口口口 |----|
口口口口 |----|
口口口口 |①---|
口口②① |②---|
2
③④口口 |①---|
口口口口 |②---|
②②口口 |③---|
①①口口 |④---|
3
口口①① |①---|
口③②② |②---|
口口③口 |③---|
口口口口 |----|
4
②口口② |①---|
③口①③ |②---|
④①口④ |③---|
口口口口 |④---|
5
口口③口 |①---|
口②口③ |----|
②口口口 |②---|
①口口① |③---|
6
口口口口 |①---|
口口口口 |②---|
③③③③ |③---|
①③③② |----|
7
①①①① |①---|
口①①口 |②---|
口口④口 |③---|
口③②口 |④---|
8
口口口口 |①---|
口②②口 |----|
口①口口 |②---|
口口口口 |----|
9
口①①口 |①---|
口口口⑥ |--②-|
⑤口口④ |③-④-|
③口口② |⑤-⑥-|
10
口口口口 |①---|
①口口口 |----|
口口口口 |----|
口口口口 |----|
11
口④口口 |--①-|
口⑤③口 |②-③-|
口⑥②口 |--④-|
口口①口 |⑤-⑥-|
12
口口口④ |①-②-|
⑤口口③ |③-④-|
⑥口口② |--⑤-|
⑦口①口 |⑥-⑦-|
13
口口口口 |----|
口口口口 |----|
口口口口 |----|
口口口口 |----|
14
口⑥⑤④ |--①-|
口口口口 |②-③-|
口口口口 |--④-|
①②③口 |⑤-⑥-|
15
口④口口 |--①-|
口⑤③口 |②-③-|
口⑥②口 |--④-|
口口①口 |⑤-⑥-|
16
口口口口 |①-②-|
口⑦⑦口 |③-④-|
④⑥⑥③ |--⑤-|
②⑤⑤① |⑥-⑦-|
17
口口口口 |----|
口口口口 |----|
口口口口 |----|
口口口口 |----|
18
口口口口 |----|
口口口口 |①---|
①②口口 |②---|
口口口口 |----|
19
②②口口 |①---|
①①口口 |②---|
口口口口 |----|
口口口口 |----|
20
口口口口 |----|
口口口口 |①---|
口口②① |②---|
口口口口 |----|
21
口口②② |①---|
口口①① |②---|
口口口口 |----|
口口口口 |----|
22
口口口口 |----|
口口口口 |----|
口口②口 |①---|
口①口口 |②---|
23
口口口口 |①---|
口③口① |----|
口口②口 |②---|
口口口口 |③---|
24
①②③口 |①---|
口口口口 |--②-|
口口口口 |③---|
口④④口 |④---|
25
②口口口 |①---|
口②口口 |----|
口①①口 |②---|
口口口口 |----|
26
口口口① |①---|
口口①口 |②---|
②③口口 |③---|
口口口口 |----|
27
②②口口 |①---|
①①口口 |②---|
口口口口 |----|
口口口口 |----|
28
口口口口 |----|
口口口口 |①---|
口口②① |②---|
口口口口 |----|
29
口口②② |①---|
口口①① |②---|
口口口口 |----|
口口口口 |----|
30
口口口口 |----|
口口口口 |----|
口口②口 |①---|
口①口口 |②---|
31
口口口口 |①---|
口③口① |----|
口口②口 |②---|
口口口口 |③---|
32
①②③口 |①---|
口口口口 |--②-|
口口口口 |③---|
口④④口 |④---|
33
②口口口 |①---|
口②口口 |----|
口①①口 |②---|
口口口口 |----|
34
口口口① |①---|
口口①口 |----|
口口口口 |②---|
口②②口 |----|
35
口口口口 |①---|
口②口口 |----|
口①口口 |②---|
口口口口 |----|
36
⑤①④⑤ |①---|
口口③口 |②-③-|
口口②口 |--④-|
口口口口 |--⑤-|
37
口口口口 |----|
①口口① |①-②-|
②口口② |--③-|
③④④③ |--④-|
38
①口口口 |----|
②口口口 |--①-|
③口口口 |②-③-|
④⑤口口 |④-⑤-|
39
⑦⑥⑤④ |--①-|
口口口③ |②-③-|
口口口② |④-⑤-|
口口口① |⑥-⑦-|
40
口⑦口口 |--①-|
口⑥⑤口 |②-③-|
口③④口 |④-⑤-|
口②①口 |⑥-⑦-|
41
②口①② |①---|
口口口口 |----|
口口口口 |②---|
口口口口 |----|
42
口口口口 |①---|
①口口① |--②-|
②口口② |----|
口口口口 |----|
43
口口口口 |①---|
口①①口 |----|
口①①口 |②---|
口口③② |③---|
44
③④口口 |①---|
口口口口 |②---|
②②口口 |③---|
①①口口 |④---|
45
口口①① |①---|
③③②② |②---|
口口口口 |③---|
口口口口 |----|
46
口口口口 |①---|
口口④口 |②---|
口③①① |③---|
口口②口 |④---|
47
口①口口 |①---|
口口口口 |----|
口口口口 |②---|
口口③② |③---|
48
③④口口 |①---|
口口口口 |②---|
②②口口 |③---|
①①口口 |④---|
49
口口①① |①---|
③③②② |②---|
口口口口 |③---|
口口口口 |----|
50
口口口口 |①---|
口口④口 |②---|
口③①① |③---|
口口②口 |④---|
51
口①口口 |①---|
口口口口 |----|
口口③② |②---|
口口③② |③---|
52
③④口口 |①---|
③④口口 |②---|
②②口口 |③---|
①①口口 |④---|
53
口口①① |①---|
③③②② |②---|
口口口口 |③---|
口口口口 |----|
54
口口口口 |①---|
口口④口 |②---|
口③①① |③---|
口口②口 |④---|
55
口①口口 |①---|
口口口口 |----|
口口③② |②---|
口口③② |③---|
56
③④口口 |①---|
③④口口 |②---|
②②口口 |③---|
①①口口 |④---|
57
口口①① |①---|
③③②② |②---|
口口口口 |③---|
口口口口 |----|
58
口口口口 |①---|
口口④口 |②---|
口③①① |③---|
口口②口 |④---|
59
口①口口 |①---|
口口口口 |--②-|
口口口口
②口口②

口⑥⑥口
口⑤⑤口
口④④口 |③-④-|
口③③口 |⑤-⑥-|
60
口口口口 |----|
口口口口 |----|
口口口口 |①---|
①口口① |----|
61
口口口口 |①---|
②口口② |----|
口①①口 |②---|
口口口口 |----|
62
②①①② |①---|
口口口口 |----|
口口口口 |②---|
口口口口 |----|
63
口口口口 |①---|
口①①口 |----|
②口口② |②---|
口口口口 |----|
64
口口口口 |①---|
口口口口 |----|
口口口口 |----|
口①①口 |----|


不确定度: 0

最終更新:2012年12月03日 22:01