POP STAR

EXTREME

Level: 7
BPM: 139
Notes: 521

1
④口口口 |----|
③口口口 |--①-|
②口口口 |②-③-|
①口口口 |④---|
2
口①①⑥ |①---|
口②②⑤ |②---|
口口口④ |③-④-|
口口口③ |⑤-⑥-|
3
口①①口 |--①-|
口②③口 |--②-|
⑤口口⑤ |③---|
④口口④ |④-⑤-|
4
口②②口 |①---|
①③③① |②-③-|
口口口口
口口口口

口口口口
⑥口口⑥
⑤口口⑤ |--④-|
④口口④ |⑤-⑥-|
5
①口⑤① |①-②-|
口③口⑥ |--③-|
④②②口 |④-⑤-|
口口口口 |⑥---|
6
②口口② |①---|
口⑥⑥口 |②---|
⑤④④⑤ |③-④-|
①③③① |⑤-⑥-|
7
②①①② |①-②-|
口⑥⑥口 |--③-|
④⑤⑤④ |④---|
③口口③ |⑤-⑥-|
8
口①①口 |①---|
⑤口口⑤ |②-③-|
口④④口 |--④-|
②③③② |--⑤-|
9
①口口① |①---|
④⑥⑥④ |--②-|
②⑤⑤② |③-④-|
口③③口 |⑤-⑥-|
10
口①①口 |①-②-|
口口口口 |③-④-|
口口口口
②③④口

口⑦⑥⑤
口口口口
口口口口 |--⑤-|
口口口口 |⑥-⑦-|
11
口④口口 |--①-|
口⑤③口 |②-③-|
口⑥②口 |--④-|
口口①口 |⑤-⑥-|
12
④⑤⑤④ |①-②-|
③⑥⑥③ |③-④-|
②⑦⑦② |⑤-⑥-|
①⑧⑧① |⑦-⑧-|
13
口口口口 |----|
口①①口 |----|
口口口口 |--①-|
口口口口 |----|
14
口⑦⑥⑤ |①-②-|
口口口口 |③-④-|
①口口① |--⑤-|
②③④口 |⑥-⑦-|
15
口④口口 |--①-|
口⑤③口 |②-③-|
口⑥②口 |--④-|
口口①口 |⑤-⑥-|
16
④口口④ |①-②-|
③⑦⑦③ |③-④-|
②⑥⑥② |--⑤-|
①⑤⑤① |⑥-⑦-|
17
口口口口 |----|
口口口口 |----|
口口口口 |----|
口口口口 |----|
18
口口⑦口 |--①-|
①②⑥口 |②-③-|
口③⑤口 |④-⑤-|
口口④口 |⑥-⑦-|
19
①①口口 |①---|
②②口口 |②-③-|
口口口口 |--④-|
⑤口④③ |--⑤-|
20
口⑦口口 |--①-|
口⑥②① |②-③-|
口⑤③口 |④-⑤-|
口④口口 |⑥-⑦-|
21
口口①① |①---|
口口②② |②-③-|
口口口口 |--④-|
③④口⑤ |--⑤-|
22
②①①② |----|
③④④③ |--①-|
口口口口 |--②-|
口口口口 |③-④-|
23
口口口口 |----|
口口口口 |--①-|
②①①② |--②-|
③④④③ |③-④-|
24
口口口口 |----|
口①②口 |--①-|
口口口口 |②---|
口③③口 |③---|
25
③口口⑤ |①---|
口②④口 |②-③-|
口①①口 |--④-|
口口口口 |--⑤-|
26
口口⑦口 |--①-|
①②⑥口 |②-③-|
口③⑤口 |④-⑤-|
口口④口 |⑥-⑦-|
27
①①口口 |①---|
②②口口 |②-③-|
口口口口 |--④-|
⑤口④③ |--⑤-|
28
口⑦口口 |--①-|
口⑥②① |②-③-|
口⑤③口 |④-⑤-|
口④口口 |⑥-⑦-|
29
口口①① |①---|
口口②② |②-③-|
口口口口 |--④-|
③④口⑤ |--⑤-|
30
②①①② |----|
③④④③ |--①-|
口口口口 |--②-|
口口口口 |③-④-|
31
口口口口 |----|
口口口口 |--①-|
②①①② |--②-|
③④④③ |③-④-|
32
口口口口 |----|
口①②口 |--①-|
口口口口 |②---|
口③③口 |③---|
33
③口口⑤ |①---|
口②④口 |②-③-|
口①①口 |--④-|
口口口口 |--⑤-|
34
口口口口 |----|
口③④口 |--①-|
③①②④ |②-③-|
①口口② |④---|
35
口②②口 |①---|
③口口③ |②-③-|
口口口口
口①①口

口口口口
口口口口
④⑤⑤④ |--④-|
④⑤⑤④ |--⑤-|
36
口③③口 |----|
①②②① |①-②-|
口④④口 |--③-|
口④④口 |--④-|
37
③②②③ |----|
②①①② |①-②-|
①口口① |--③-|
口④④口 |--④-|
38
①②口口 |----|
②③口口 |--①-|
③④口口 |②-③-|
④⑤口口 |④-⑤-|
39
口口②① |--①-|
口口③② |②-③-|
口口④③ |④-⑤-|
⑦⑥⑤④ |⑥-⑦-|
40
①②③④ |--①-|
②③④⑤ |②-③-|
口口⑦⑥ |④-⑤-|
口口口⑦ |⑥-⑦-|
41
口口口口 |①---|
口口口口 |----|
②①口口 |②---|
口②①口 |----|
42
口②口口 |①---|
口口②口 |--②-|
口口口② |----|
①口口口 |----|
43
口口①口 |①---|
口①口① |--②-|
口⑥①口 |③-④-|
⑤④③② |⑤-⑥-|
44
口口②③ |①---|
口①④② |②---|
口⑤①口 |③-④-|
⑥口口口 |⑤-⑥-|
45
口口④⑤ |--①-|
口②③④ |--②-|
①口②口 |③---|
口①口口 |④-⑤-|
46
①口口⑥ |①---|
口口⑥⑤ |②---|
口口⑤④ |③-④-|
②口④③ |⑤-⑥-|
47
口②①⑦ |①-②-|
口口⑤口 |--③-|
口③口⑥ |④-⑤-|
④口口口 |⑥-⑦-|
48
口②①口 |①---|
②⑥⑥① |②---|
⑤④④⑤ |③-④-|
口③③口 |⑤-⑥-|
49
②①①② |①-②-|
口口口口 |--③-|
④⑥⑥④ |④---|
⑤③③⑤ |⑤-⑥-|
50
③②②③ |①---|
④①①④ |②-③-|
口⑤⑤口 |--④-|
口口口口 |--⑤-|
51
⑤④③② |①---|
口口口口 |--②-|
口⑥口口 |③-④-|
口①①口 |⑤-⑥-|
52
④口②③ |①---|
口①口② |②---|
口口①口 |③-④-|
⑥口口⑤ |⑤-⑥-|
53
口口⑤⑥ |--①-|
口③④⑤ |--②-|
①②③口 |③-④-|
口①口口 |⑤-⑥-|
54
①口口口 |①---|
口⑥口口 |②-③-|
口口⑤④ |--④-|
②口④③ |⑤-⑥-|
55
②①口⑦ |①-②-|
①口⑤口 |--③-|
口③口⑥ |④-⑤-|
④口口口 |⑥-⑦-|
56
口②①口 |①---|
②⑥⑥① |②---|
⑤④④⑤ |③-④-|
口③③口 |⑤-⑥-|
57
②①①② |①-②-|
口口口口 |--③-|
④⑥⑥④ |④---|
⑤③③⑤ |⑤-⑥-|
58
③②②③ |①---|
④①①④ |②-③-|
口⑤⑤口 |--④-|
口口口口 |--⑤-|
59
口②②口 |①---|
③④⑤⑥ |--②-|
口口口口 |③-④-|
口①①口 |⑤-⑥-|
60
口⑦⑥⑤ |①-②-|
口口口口 |③-④-|
①口口① |--⑤-|
②③④口 |⑥-⑦-|
61
口④口口 |--①-|
口⑤③口 |②-③-|
口⑥②口 |--④-|
口口①口 |⑤-⑥-|
62
④⑤⑤④ |①-②-|
③⑥⑥③ |③-④-|
②⑦⑦② |⑤-⑥-|
①⑧⑧① |⑦-⑧-|


不确定度: 0

最終更新:2012年12月03日 22:01