PEACH

BASIC

Level: 2
BPM: 146
Notes: 163

1
口口口口 |----|
口口口口 |----|
口口口口 |----|
口口口口 |----|
2
口①口口 |①---|
口②口口 |----|
口口口口 |②---|
口口口口 |----|
3
口口口口 |①---|
口口口口 |----|
口口①口 |②---|
口口②口 |----|
4
口口①口 |①---|
口口②口 |----|
口口口口 |②---|
口口口口 |----|
5
口口口口 |①---|
口口口口 |----|
口①口口 |②---|
口②口口 |----|
6
口口口口 |①---|
口口口口 |----|
②口口口 |②---|
①口口口 |----|
7
口②口口 |①---|
口①口口 |----|
口口口口 |②---|
口口口口 |----|
8
口口①口 |①---|
口口口② |----|
口口口③ |②---|
口口口口 |③---|
9
口口口口 |①---|
口口口口 |----|
口口口口 |----|
口口口① |----|
10
口口口口 |①---|
③口口口 |----|
②口口口 |②---|
口①口口 |③---|
11
口①口口 |----|
口口②口 |①---|
口口③口 |②---|
口口口口 |③---|
12
口口口口 |①---|
口口口口 |②---|
口口口口 |----|
口②①口 |----|
13
口口口口 |①---|
口②口口 |----|
口①口口 |②---|
口口口口 |----|
14
口口①口 |①---|
口口口② |----|
口口口③ |②---|
口口口口 |③---|
15
口口口口 |----|
口③口口 |①---|
口②口口 |②---|
口口①口 |③---|
16
口①②口 |①---|
口口口口 |②---|
口口口口 |----|
口口口口 |----|
17
口口口口 |①---|
口口①口 |----|
口口②口 |②---|
口口口口 |----|
18
口口口口 |----|
口口口口 |①---|
口③口口 |②---|
口口②① |③---|
19
口④口口 |①---|
口口③② |②---|
①口口口 |③---|
口口口口 |④---|
20
①口②③ |①---|
④口口口 |②---|
口口口口 |③---|
口口口口 |④---|
21
口口口口 |①---|
口①口口 |----|
口口口口 |----|
口口口口 |----|
22
口口口口 |----|
口口口口 |①---|
口③②① |②---|
口口口口 |③---|
23
口口口口 |①---|
口口口口 |②---|
①口口口 |③---|
口④③② |④---|
24
口口口口 |①---|
口口口口 |----|
①②②① |②---|
口口口口 |----|
25
口口③口 |①---|
①②②① |----|
口口口口 |②---|
口口口口 |③---|
26
口①口口 |①---|
口口口口 |----|
口口口口 |----|
口口口口 |----|
27
②口口① |①---|
口口口口 |----|
口口口口 |②---|
口口口口 |----|
28
口口口口 |----|
口③②口 |①---|
口①①口 |--②-|
口口口口 |③---|
29
①②③④ |①---|
口口口口 |②---|
口口口口 |③---|
口口口口 |④---|
30
口口口口 |①---|
口②②① |----|
口口口口 |②---|
口口口口 |----|
31
口口口口 |①---|
口口口口 |②---|
①口③口 |③---|
口②口④ |④---|
32
口口口口 |①---|
口口口口 |----|
口②②① |②---|
口口口口 |----|
33
口口口口 |①---|
口①②口 |----|
口口口口 |②---|
口口口口 |----|
34
②①①② |①---|
口口口口 |----|
口口口口 |②---|
口口口口 |----|
35
口口口口 |①---|
②①①② |----|
③口口③ |②---|
口口口口 |③---|
36
口口口口 |----|
口①①口 |①---|
口③②口 |--②-|
口口口口 |③---|
37
口口口口 |①---|
口口口口 |②---|
口口口口 |③---|
①②③④ |④---|
38
口口口口 |①---|
口口口口 |----|
口②②① |②---|
口口口口 |----|
39
口②口④ |①---|
①口③口 |②---|
口口口口 |③---|
口口口口 |④---|
40
口口口口 |①---|
口②②① |----|
口口口口 |②---|
口口口口 |----|
41
口口口口 |①---|
口口口口 |----|
口②①口 |②---|
口口口口 |----|
42
口口口口 |①---|
口口口口 |----|
口口口口 |②---|
②①①② |----|
43
口口口口 |①---|
口口④口 |②---|
①口③① |③---|
口口②口 |④---|
44
口①口口 |----|
口②口口 |①---|
口③口口 |②---|
口口口口 |③---|
45
口口口口 |----|
口③③口 |①---|
口②②口 |②---|
口①①口 |③---|
46
①口口口 |①---|
②口口口 |----|
口口口口 |②---|
口口口口 |----|
47
口口口口 |①---|
口口口口 |----|
口①①口 |②---|
口②②口 |----|
48
口口口口 |①---|
口口口口 |----|
口口口② |②---|
口口口① |----|
49
口②②口 |①---|
口①①口 |----|
口口口口 |②---|
口口口口 |----|
50
①口口口 |①---|
②口口口 |----|
口口口口 |②---|
口口口口 |----|
51
口口口口 |①---|
口口口口 |----|
口①①口 |②---|
口②②口 |----|
52
口口口口 |①---|
口口④口 |②---|
口口③口 |③---|
口口②① |④---|
53
口②①口 |①---|
口③口口 |②---|
口④口口 |③---|
口口口口 |④---|
54
口口口口 |①---|
口口口口 |----|
口口口口 |----|
口①①口 |----|


不确定度: 0

最終更新:2012年12月03日 22:01