PEACH

ADVANCED

Level: 4
BPM: 146
Notes: 293

1
口口口口 |----|
口口口口 |----|
口口口口 |----|
口口口口 |----|
2
口①①口 |①---|
口口口口 |----|
口②②口 |②---|
口口口口 |----|
3
口口口口 |①---|
口口口口 |②---|
口口口④ |③---|
口①②③ |④---|
4
口①①口 |①---|
口②②口 |----|
口口口口 |②---|
口口口口 |----|
5
口口口口 |①---|
口口口口 |②---|
④①口口 |③---|
③②口口 |④---|
6
口口口口 |①---|
口②②口 |----|
口口口口 |②---|
口①①口 |----|
7
口①②③ |①---|
口口口④ |②---|
口口口口 |③---|
口口口口 |④---|
8
口⑤④口 |①---|
口③②口 |----|
口口口口 |②-③-|
口①①口 |④-⑤-|
9
口口口口 |----|
口口口口 |----|
口口口口 |----|
口口口口 |----|
10
口①口口 |①---|
口口口④ |②---|
口②④③ |③---|
口口③口 |④---|
11
口③②① |----|
口口口口 |①---|
口口口口 |②---|
口口口口 |③---|
12
①口口口 |①---|
口口口口 |②---|
②口口口 |----|
②口③口 |--③-|
13
口口口③ |①---|
口口②口 |②-③-|
口口口① |----|
口口口口 |----|
14
口口①口 |①---|
④口口口 |②---|
③④②口 |③---|
口③口口 |④---|
15
①②③口 |----|
口口口口 |①---|
口口口口 |②---|
口口口口 |③---|
16
口口口① |①---|
口口口口 |②---|
口口口② |----|
口③口② |--③-|
17
③口口口 |①---|
口②口口 |②-③-|
①口口口 |----|
口口口口 |----|
18
①②③口 |----|
口⑥⑤④ |①-②-|
口口口口 |③-④-|
口口口口 |⑤-⑥-|
19
口口口口 |①---|
口口口口 |②---|
①②③④ |③---|
口口口口 |④---|
20
口口口口 |----|
口口口口 |①---|
口口③口 |②---|
①①②② |③---|
21
口口口口 |①---|
口口口口 |----|
口①口口 |----|
口口口口 |----|
22
口口口③ |----|
③口口口 |①---|
②口口① |②---|
①口口② |③---|
23
①口②口 |①---|
口③口① |②---|
口口④口 |③---|
口口口口 |④---|
24
口口口口 |①---|
口口口口 |----|
②口口② |②---|
①①①① |----|
25
②口③② |①---|
①①①① |----|
口口口口 |②---|
口口口口 |③---|
26
口①口口 |①---|
口口口口 |----|
口口口口 |----|
口口口口 |----|
27
口口口口 |①---|
②①①② |----|
②①①② |②---|
口口口口 |----|
28
①口③口 |----|
①②②口 |①---|
口②②① |②-③-|
口④口① |④---|
29
④口口① |①---|
③口口② |②---|
②口口③ |③---|
①口口④ |④---|
30
口口口口 |①---|
②①①② |----|
②①①② |②---|
口口口口 |----|
31
口口①口 |①---|
口②口口 |②---|
口口②口
口①口口

口口④口
口口③口
口③口口 |③---|
口④口口 |④---|
32
口口口① |①---|
②口口② |----|
②口口② |②---|
①口口口 |----|
33
①②①② |①---|
口口口口 |②---|
口口口口 |③---|
③④③④ |④---|
34
口口口口 |①---|
①口②口 |----|
①口②口 |②---|
口口口口 |----|
35
口③③口 |①---|
口①口② |----|
口①口② |②---|
口口口口 |③---|
36
口③口① |----|
口②②① |①---|
①②②口 |②-③-|
①口④口 |④---|
37
①口口④ |①---|
②口口③ |②---|
③口口② |③---|
④口口① |④---|
38
口口口口 |①---|
②①①② |----|
②①①② |②---|
口口口口 |----|
39
口①口口 |①---|
口口②口 |②---|
口②口口
口口①口

口④口口
口③口口
口口③口 |③---|
口口④口 |④---|
40
①口口口 |①---|
②口口② |----|
②口口② |②---|
口口口① |----|
41
④③④③ |①---|
口口口口 |②---|
口口口口 |③---|
②①②① |④---|
42
口口口口 |①---|
④②③① |②---|
④②③① |③---|
口口口口 |④---|
43
口⑦①口 |--①-|
口⑥②口 |②-③-|
口⑤③口 |④-⑤-|
口④口口 |⑥-⑦-|
44
口⑦①口 |--①-|
口⑥②口 |②-③-|
口⑤③口 |④-⑤-|
口④口口 |⑥-⑦-|
45
口⑦①口 |--①-|
口⑥②口 |②-③-|
口⑤③口 |④-⑤-|
口④口口 |⑥-⑦-|
46
口口口① |①---|
口口口口 |----|
口②②口 |②---|
口口口口 |----|
47
口口口口 |①---|
口口口口 |②---|
口口口④ |③---|
口①②③ |④---|
48
口①①口 |①---|
口②②口 |----|
口口口口 |②---|
口口口口 |----|
49
口口口口 |①---|
口口口口 |②---|
④①口口 |③---|
③②口口 |④---|
50
口口口口 |①---|
口②②口 |----|
口口口口 |②---|
口①①口 |----|
51
口①②③ |①---|
口口口④ |②---|
口口口口 |③---|
口口口口 |④---|
52
口④④口 |①---|
口③③口 |②---|
口②②口 |③---|
口①①口 |④---|
53
①口口② |①---|
③口口④ |②---|
口口口口 |③---|
口口口口 |④---|
54
口口口口 |①---|
口口口口 |----|
①①①① |----|
口口口口 |----|
55
口口口口 |①---|
口口口口 |②---|
口口④③ |③---|
①②口口 |④---|
56
口口口口 |①---|
①①①① |----|
口口口口 |----|
口口口口 |----|


不确定度: 0

最終更新:2012年12月03日 22:00