PEACH

EXTREME

Level: 6
BPM: 146
Notes: 383

1
口口口口 |----|
口口口口 |----|
口口口口 |----|
口口口口 |----|
2
①①①① |①---|
②④口③ |--②-|
口口口口 |③---|
口口口口 |--④-|
3
口口口口 |--①-|
⑤口口⑤ |---②----|
④口①④ |③-④-|
③②口③ |⑤---|
4
①①①① |①---|
④②③口 |--②-|
口口口口 |③---|
口口口口 |--④-|
5
口口口口 |--①-|
口口⑤口 |②---|
口口④① |③-④-|
②口③口 |⑤---|
6
①①①① |①---|
③口④② |--②-|
口口口口 |③---|
口口口口 |--④-|
7
口口口口 |--①-|
⑤口口⑤ |---②----|
④①口④ |③-④-|
③口②③ |⑤---|
8
①①①① |①---|
口②②口 |----|
③④④③ |②-③-|
⑤口口⑤ |④-⑤-|
9
③口口③ |--①-|
口②②口 |②-③-|
口口口口 |----|
口①①口 |----|
10
口①口口 |①-②-|
②口口口 |③---|
口③口口 |④---|
⑤⑤④④ |⑤---|
11
口口④③ |----|
口口②⑤ |①-②-|
口口⑥① |③-④-|
口口口口 |⑤-⑥-|
12
口口口口 |①---|
③口口口 |②---|
口口口口 |----|
口②②① |--③-|
13
①口口③ |①---|
口口口② |②-③-|
口口口口 |----|
口口口口 |----|
14
口口口口 |①-②-|
①⑤③⑥ |③-④-|
⑤②⑥④ |⑤---|
口口口口 |⑥---|
15
口口口口 |----|
口⑥口口 |①-②-|
口口⑤口 |③-④-|
①②③④ |⑤-⑥-|
16
②②①口 |①---|
口口③口 |②---|
口口口口 |----|
口口口口 |--③-|
17
口口口口 |①---|
②②口口 |②-③-|
口①③③ |----|
口口口口 |----|
18
①口口口 |----|
④②口口 |①-②-|
口⑤③口 |③-④-|
口口⑥口 |⑤-⑥-|
19
④④口口 |①---|
口③口口 |②-③-|
口口②① |--④-|
口口口口 |----|
20
口③①① |----|
口④口① |①---|
②口口口 |②---|
②②口口 |③-④-|
21
口口口口 |①---|
口口口口 |----|
口口①① |----|
口口口口 |----|
22
①③④② |----|
⑤口口⑥ |①-②-|
口口口口 |③-④-|
口口口口 |⑤-⑥-|
23
口口口口 |①---|
口①①口 |②-③-|
②③④⑤ |--④-|
口口口口 |⑤---|
24
口口口口 |①---|
口③口口 |--②-|
口口②口 |③---|
①①①① |----|
25
①①①① |①---|
⑤④②⑤ |--②-|
⑤③④⑤ |③---|
口口口口 |④-⑤-|
26
口口口口 |----|
①口口口 |----|
口①口口 |----|
①口口口 |--①-|
27
口③③口 |①---|
口②②① |②-③-|
口口①口 |----|
口口口① |----|
28
①①口⑤ |----|
①③④口 |①---|
口④③② |②-③-|
⑤口②② |④-⑤-|
29
③④⑤口 |--①-|
②口口① |②-③-|
①口口② |④---|
口⑤④③ |⑤---|
30
③口口① |①---|
②口口② |--②-|
②口口② |----|
①口口口 |--③-|
31
口口口口 |--①-|
①②口口 |②-③-|
口口③④ |④---|
⑤⑤口口 |⑤---|
32
④口口口 |①---|
口③③口 |--②-|
口②②口 |③---|
口口①① |--④-|
33
口①⑥⑥ |①-②-|
③③⑤④ |--③-|
口口②口 |--④-|
口口口口 |⑤-⑥-|
34
口口口口 |----|
口口口口 |①-②-|
①②口口 |----|
口口口③ |--③-|
35
口⑥口口 |①---|
口⑤口口 |②-③-|
④③②口 |④---|
口口①口 |⑤-⑥-|
36
④⑤①口 |----|
口③①① |①---|
②②③口 |②-③-|
口②⑤④ |④-⑤-|
37
⑤⑤④③ |--①-|
①口口② |②-③-|
②口口① |④---|
③④⑤⑤ |⑤---|
38
口口口③ |①---|
②①①② |--②-|
②①①② |----|
口口口口 |--③-|
39
口口口口 |--①-|
口口②① |②-③-|
④③口口 |④---|
口口⑤⑤ |⑤---|
40
④口口口 |①---|
口③③口 |--②-|
口②②口 |③---|
①①口口 |--④-|
41
口①⑥⑥ |①-②-|
③③⑤④ |--③-|
口口②口 |--④-|
口口口口 |⑤-⑥-|
42
口口口口 |--①-|
口口口口 |②-③-|
口①口口 |-④-⑤|
②③④⑤ |----|
43
④⑤口口 |--①-|
③⑥口口 |②-③-|
②⑦口口 |④-⑤-|
口①口口 |⑥-⑦-|
44
口口⑤④ |--①-|
口口⑥③ |②-③-|
口口⑦② |④-⑤-|
口口①口 |⑥-⑦-|
45
④⑤⑤④ |--①-|
③⑥⑥③ |②-③-|
②⑦⑦② |④-⑤-|
口①①口 |⑥-⑦-|
46
口口口口 |①---|
口口口口 |--②-|
③口④② |③---|
①①①① |--④-|
47
③口②③ |--①-|
④①口④ |---②----|
⑤口口⑤ |③-④-|
口口口口 |⑤---|
48
口口口口 |①---|
口口口口 |--②-|
口③②④ |③---|
①①①① |--④-|
49
口③③② |--①-|
①④④口 |②---|
口⑤⑤口 |③-④-|
口口口口 |⑤---|
50
口口口口 |①---|
③口④② |--②-|
口口口口 |③---|
①①①① |--④-|
51
口口口口 |--①-|
⑤口口⑤ |---②----|
④①口④ |③-④-|
③口②③ |⑤---|
52
口①⑧口 |①-②-|
口⑦②口 |③-④-|
口③⑥口 |⑤-⑥-|
口⑤④口 |⑦-⑧-|
53
①口口⑧ |①-②-|
⑦口口② |③-④-|
③口口⑥ |⑤-⑥-|
⑤口口④ |⑦-⑧-|
54
口①①口 |①---|
口口口口 |----|
口口口口 |----|
口口口口 |----|
55
口口口口 |①-②-|
①口口② |③-④-|
③⑤⑤④ |--⑤-|
口口口口 |----|
56
口口口口 |①---|
口口口口 |----|
口口口口 |----|
①①①① |----|


不确定度: 0

最終更新:2012年12月03日 22:00