負けないで

BASIC

Level: 3
BPM: 125
Notes: 282

1
口口口口 |----|
口口口口 |----|
口口口口 |----|
口口口口 |----|
2
口①口口 |①---|
口口②口 |----|
口口口口 |②---|
口口口口 |----|
3
口口口口 |①---|
口口口口 |----|
口①口口 |②---|
口口②口 |----|
4
口口①口 |①---|
口②口口 |----|
口口口口 |②---|
口口口口 |----|
5
口口口口 |①---|
口口口口 |----|
口口①口 |②---|
口②口口 |----|
6
口口口口 |----|
口口口口 |----|
口口口口 |①---|
口口口① |----|
7
②口口① |①---|
口口口口 |----|
口口口口 |②---|
口口口口 |----|
8
口口口口 |①---|
口口口口 |----|
口口口口 |②---|
①②口口 |----|
9
口口口口 |①---|
口口口口 |----|
口口口② |②---|
口口①口 |----|
10
口口②口 |①---|
口口口① |----|
口口口口 |②---|
口口口口 |----|
11
口①口口 |①---|
②口口口 |----|
口口口口 |②---|
口口口口 |----|
12
口口口口 |①---|
口口口口 |----|
①口口口 |②---|
口②口口 |----|
13
口口口口 |①---|
口口口口 |----|
口口口口 |②---|
口口①② |----|
14
①口①口 |①---|
口②口② |----|
口口口口 |②---|
口口口口 |----|
15
口口口口 |①---|
口口口口 |----|
①口①口 |②---|
口②口② |----|
16
口口口口 |①---|
口②口② |----|
①口①口 |②---|
口口口口 |----|
17
①口①口 |①---|
口口口口 |----|
②口口口 |②---|
口口口口 |----|
18
口口口口 |①---|
口口口口 |----|
口口口口 |②---|
①②口口 |----|
19
口口口口 |①---|
口口口口 |----|
口口口口 |②---|
口口①② |----|
20
口口口口 |①---|
口②②口 |----|
口①①口 |②---|
口口口口 |----|
21
口①①口 |①---|
口口口口 |----|
口口口口 |----|
口口口口 |----|
22
口口口口 |①---|
口①①口 |----|
口①①口 |②---|
③②②③ |③---|
23
③④④③ |①---|
②口口② |②---|
①口口① |③---|
口口口口 |④---|
24
口口口口 |①---|
①口口① |②---|
口②②口 |③---|
③④④③ |④---|
25
口③③口 |①---|
口②②口 |②---|
口①①口 |③---|
口口口口 |----|
26
口口口③ |①---|
口①②口 |----|
口②①口 |②---|
③口口口 |③---|
27
③口口口 |①---|
②④④① |②---|
①口口② |③---|
口口口③ |④---|
28
口口口口 |①---|
口口口口 |----|
③①①③ |②---|
②口口② |③---|
29
口口口口 |①---|
①②②① |----|
口②②口 |②---|
口口口口 |----|
30
口口口口 |①---|
口口口口 |----|
口②②口 |②---|
口①①口 |----|
31
口②②口 |①---|
口①①口 |----|
口口口口 |②---|
口口口口 |----|
32
口口口口 |①---|
口口口口 |----|
口①①口 |----|
口①①口 |----|
33
口口口口 |①---|
口①①口 |----|
口①①口 |----|
口口口口 |----|
34
口①口口 |①---|
口口②口 |②---|
口③口口 |③---|
口口④口 |④---|
35
口口①口 |①---|
口②口口 |②---|
口口③口 |③---|
口④口口 |④---|
36
口口口口 |----|
口口口口 |----|
口口口口 |①---|
口口②① |②---|
37
口口口口 |①---|
④口口口 |②---|
③口口口 |③---|
②①口口 |④---|
38
①②③④ |①---|
口口口口 |②---|
口口口口 |③---|
口口口口 |④---|
39
口口口口 |①---|
口口口① |②---|
口口口② |③---|
口口口③ |----|
40
口口口口 |----|
口口口口 |----|
口口②口 |①---|
口口口① |②---|
41
口口②口 |①---|
口③口① |②---|
口口④口 |③---|
口口口口 |④---|
42
口口④口 |①---|
口③口口 |②---|
②口口口 |③---|
口①口口 |④---|
43
口口口口 |①---|
口口口① |②---|
口口②口 |③---|
口③口口 |----|
44
口口口口 |----|
③口③口 |①---|
口②口② |②---|
①口①口 |③---|
45
②①②① |①---|
口③口③ |②---|
④口④口 |③---|
口口口口 |④---|
46
口口口口 |①---|
④口④口 |②---|
③口③口 |③---|
②①②① |④---|
47
①②①② |①---|
口③口③ |②---|
口④口④ |③---|
口口口口 |④---|
48
口②②口 |①---|
口③③口 |②---|
口④④口 |③---|
口①口① |④---|
49
口口口口 |①---|
④口口④ |②---|
③口口③ |③---|
②①①② |④---|
50
①②②① |①---|
③口口③ |②---|
口④④口 |③---|
口口口口 |④---|
51
口口口口 |①---|
口口口口 |----|
口口口口 |----|
①口口① |----|
52
口口口口 |①---|
口①①口 |----|
口①①口 |②---|
③②②③ |③---|
53
③④④③ |①---|
②口口② |②---|
①口口① |③---|
口口口口 |④---|
54
口口口口 |①---|
①口口① |②---|
口②②口 |③---|
③④④③ |④---|
55
口③③口 |①---|
口②②口 |②---|
口①①口 |③---|
口口口口 |----|
56
③口口口 |①---|
口②①口 |----|
口①②口 |②---|
口口口③ |③---|
57
口口口③ |①---|
①④④② |②---|
②口口① |③---|
③口口口 |④---|
58
口口口口 |①---|
③口口③ |----|
②①①② |②---|
口口口口 |③---|
59
①口口① |①---|
口②②口 |----|
口②②口 |②---|
口口口口 |----|
60
口口口口 |①---|
口口口口 |----|
②口口② |②---|
口①①口 |----|
61
②口口② |①---|
口①①口 |----|
口口口口 |②---|
口口口口 |----|
62
口①①口 |①---|
口①①口 |----|
口口口口 |----|
口口口口 |----|
63
口口口口 |①---|
口①①口 |----|
口①①口 |----|
口口口口 |----|


不确定度: 0

最終更新:2012年12月03日 22:00