負けないで

ADVANCED

Level: 4
BPM: 125
Notes: 347

1
口口口口 |----|
口口口口 |----|
口口口口 |----|
口口口口 |----|
2
口①口口 |①---|
口口②口 |----|
口口口口 |②---|
口口口口 |----|
3
口口口口 |①---|
口口口口 |----|
口①口口 |②---|
口口②口 |----|
4
口口①口 |①---|
口②口口 |----|
口口口口 |②---|
口口口口 |----|
5
口口口口 |①---|
口口口口 |----|
口口①口 |②---|
口②口口 |----|
6
口口口口 |----|
口口口口 |----|
口口口② |①---|
口口口① |②---|
7
口④③② |①---|
口口口① |②---|
口口口口 |③---|
口口口口 |④---|
8
①口口口 |----|
②口口口 |----|
口口口口 |①---|
口口口口 |②---|
9
口口口口 |①---|
口口口口 |②---|
①口口口 |③---|
②③口口 |----|
10
口口口口 |----|
口口口口 |----|
口口②口 |①---|
口口①口 |②---|
11
口口②③ |①---|
口口①口 |②---|
口口口口 |③---|
口口口口 |----|
12
口口①口 |----|
口口②口 |----|
口口口口 |①---|
口口口口 |②---|
13
口口口口 |①---|
口口口口 |②---|
口口①口 |③---|
口口②③ |----|
14
②口口① |----|
②口口① |①---|
③口口③ |②---|
口口口口 |③---|
15
口口口口 |----|
口口口口 |①---|
口①①口 |②---|
②③③② |--③-|
16
口①①口 |----|
口②②口 |①---|
口③③口 |②---|
口口口口 |--③-|
17
口⑤④③ |①---|
口口口口 |--②-|
口口口口 |--③-|
②①①② |④-⑤-|
18
④口口口 |--①-|
⑤①②③ |②-③-|
口口口口 |----|
口口口口 |④-⑤-|
19
⑤口口⑤ |①-②-|
口口口口 |--③-|
①口口口 |④---|
②③④口 |⑤---|
20
口①①口 |①---|
②③③② |--②-|
口④④口 |③---|
口⑤⑤口 |④-⑤-|
21
口口口口 |----|
口口口口 |----|
口口口口 |----|
口口口口 |----|
22
②①①② |①---|
③①①③ |②---|
④口口④ |③---|
口口口口 |④---|
23
口⑤⑤口 |①---|
口④④口 |②-③-|
口③③口 |④---|
①②②① |⑤---|
24
口口口口 |①---|
①口口① |②---|
②⑤⑤② |③---|
③④④③ |④-⑤-|
25
④②②④ |①-②-|
③①①③ |--③-|
口口口口 |④---|
口口口口 |----|
26
口口口③ |①---|
口①②口 |----|
口②①口 |②---|
③口口口 |③---|
27
③②①口 |①---|
口④口口 |②---|
口口④口 |③---|
口①②③ |④---|
28
口口口口 |①---|
口口①口 |②---|
②①口② |③---|
③④④③ |④---|
29
⑤④④⑤ |①-②-|
口③③口 |--③-|
①②②① |④---|
口口口口 |--⑤-|
30
口口口口 |①---|
①口口① |----|
口②②口 |②--③|
③④④③ |--④-|
31
④口口④ |①---|
③②②③ |②---|
①口口① |③---|
口口口口 |④---|
32
口口口口 |①---|
口口口口 |----|
口①①口
口①①口

口③③口
口②②口
口②②口 |----|
口口口口 |②-③-|
33
口口口口 |----|
口口口口 |----|
口口口口 |----|
口口口口 |----|
34
口①口口 |①---|
口口②口 |②---|
口③口口 |③---|
口口④口 |④---|
35
口口①口 |①---|
口②口口 |②---|
口口③口 |③---|
口④口口 |④---|
36
口口口口 |----|
口口口口 |----|
口口口口 |①---|
口口②① |②---|
37
口口口口 |①---|
④口口口 |②---|
③口口口 |③---|
②①口口 |④---|
38
①②口口 |----|
口口口口 |----|
口口口口 |①---|
口口口口 |②---|
39
口口①② |①---|
口口口③ |②---|
口口口口 |③---|
口口口口 |----|
40
口口口口 |----|
口口口口 |----|
口口②口 |①---|
口口口① |②---|
41
口口②口 |①---|
口③口① |②---|
口口口口 |③---|
口口口口 |----|
42
口口①口 |----|
口口②口 |----|
口口口口 |①---|
口口口口 |②---|
43
口口口口 |①---|
口口口口 |②---|
口口①口 |③---|
口③②口 |----|
44
口口口口 |----|
③口口③ |①---|
②口口① |②---|
②口口① |③---|
45
①④④① |①---|
③②②③ |②---|
口口口口 |③---|
口口口口 |--④-|
46
口口口口 |----|
口③③口 |①---|
口②②口 |②---|
口①①口 |--③-|
47
②①①② |①-②-|
③口口③ |③-④-|
口④④口
口口口口

口⑤⑥⑦
口口口口
口口口口 |--⑤-|
口口口口 |⑥-⑦-|
48
④口口口 |--①-|
⑤③②① |②-③-|
⑥口口口 |--④-|
口口口口 |⑤-⑥-|
49
⑤口口⑤ |①-②-|
口口口口 |--③-|
口口口口 |④---|
①②③④ |⑤---|
50
口①①口 |①---|
②③③② |--②-|
口④④口 |③---|
口⑤⑤口 |④-⑤-|
51
口口口口 |----|
口口口口 |----|
口口口口 |----|
口口口口 |----|
52
②①①② |①---|
③①①③ |②---|
④口口④ |③---|
口口口口 |④---|
53
口⑤⑤口 |①---|
口④④口 |②-③-|
口③③口 |④---|
①②②① |⑤---|
54
口口口口 |①---|
①口口① |②---|
②④④② |③---|
口③③口 |④---|
55
④②②④ |①-②-|
③①①③ |--③-|
口口口口 |④---|
口口口口 |----|
56
③口口口 |①---|
口②①口 |----|
口①②口 |②---|
口口口③ |③---|
57
口①②③ |①---|
口口④口 |②---|
口④口口 |③---|
③②①口 |④---|
58
口口口口 |①---|
口①口口 |②---|
②口①② |③---|
③④④③ |④---|
59
口③③口 |①-②-|
口②②口 |--③-|
口①①口
口口口口

④口口④
口⑤⑤口
口口口口 |④---|
口口口口 |--⑤-|
60
口口口口 |①---|
①口口① |----|
口②②口 |②--③|
③④④③ |--④-|
61
口④④口 |①---|
③②②③ |②---|
①口口① |③---|
口口口口 |④---|
62
口口口口 |①---|
口口口口 |----|
口①①口
口①①口

口③③口
口②②口
口②②口 |----|
口口口口 |②-③-|


不确定度: 0

最終更新:2012年12月03日 21:59