負けないで

EXTREME

Level: 5
BPM: 125
Notes: 426

1
口口口口 |----|
口口口口 |----|
口口口口 |----|
口口口口 |----|
2
口①口口 |①---|
口口②口 |②---|
口③口口 |③---|
口口④口 |④---|
3
口口①口 |①---|
口②口口 |②---|
口口③口 |③---|
口④口口 |④---|
4
①②口口 |①---|
口口口口 |②---|
口口口口 |③---|
口口④③ |④---|
5
口口口① |①---|
口口②口 |②---|
口③口口 |③---|
④口口口 |④---|
6
口口口① |----|
口口口② |----|
口口口③ |①-②-|
口口口④ |③-④-|
7
口口口口 |①---|
①②口口 |②---|
③④口口 |③-④-|
口口口口 |----|
8
①②③口 |----|
口口④口 |----|
口口口口 |①-②-|
口口口口 |③-④-|
9
口口口口 |①-②-|
口口④口 |--③-|
口口③口 |④---|
口口②① |----|
10
①②③④ |----|
口口口口 |----|
口口口口 |①-②-|
口口口口 |③-④-|
11
②口口口 |①---|
③④⑤① |②-③-|
口口口口 |④-⑤-|
口口口口 |----|
12
口口口④ |----|
口口口③ |----|
口口口② |①-②-|
口口口① |③-④-|
13
①口口口 |①-②-|
②口口口 |--③-|
③口口口 |④---|
④口口口 |----|
14
①①④④ |----|
②②③③ |①---|
口口口口 |②---|
口口口口 |③-④-|
15
口口口口 |----|
口口口口 |①---|
①口口① |②---|
②③③② |--③-|
16
口①①口 |----|
口②②口 |①-②-|
口③③口 |③-④-|
⑤④④⑤ |--⑤-|
17
③④④③ |①-②-|
②⑤⑥② |③-④-|
①⑦口① |--⑤-|
口口口口 |⑥-⑦-|
18
④口口口 |--①-|
⑤口口口 |②-③-|
口口①口 |----|
口②③口 |④-⑤-|
19
口③⑤口 |①-②-|
口③⑥口 |--③-|
①④口口 |④---|
②口口口 |⑤-⑥-|
20
口口口② |①---|
口口口口 |--②-|
口口①口
口口①口

口口口口
口口口③
口口口④ |③---|
口⑤⑤④ |④-⑤-|
21
口口口口 |----|
口口口口 |----|
口口口口 |----|
口口口口 |----|
22
②①①② |①-②-|
③①①③ |③-④-|
口④④口 |⑤---|
⑥⑤⑤⑥ |⑥---|
23
③④④③ |①---|
②⑤⑤② |②-③-|
①口口① |④---|
口口口口 |⑤---|
24
口口口口 |①---|
①口口① |②-③-|
③②②③
口口口口

口口口口
口口口口
口⑥⑥口 |④---|
④⑤⑤④ |⑤-⑥-|
25
④②②④ |①-②-|
③①①③ |--③-|
口口口口 |④---|
口口口口 |----|
26
口①①口 |①-②-|
口④口口 |③-④-|
口口④口
②②③③

口口口⑥
口口⑤口
口⑤口口 |⑤---|
⑥口口口 |⑥---|
27
③②①口 |①---|
④⑤口口 |②-③-|
口口⑤④ |④---|
口①②③ |⑤---|
28
口口口口 |①---|
口口①口 |②-③-|
口①口口
③②②③

口口口口
口⑤⑤口
④⑤⑤④ |④---|
口口口口 |⑤---|
29
口①②口 |①-②-|
③④④③ |--③-|
口口口口 |④---|
口⑤⑤口 |--⑤-|
30
④③③④ |①---|
口②②口 |----|
口①①口 |②--③|
口口口口 |--④-|
31
口口口口 |①---|
④口口④ |②---|
③①①③ |③---|
②①①② |④---|
32
口①①口 |①---|
口①①口 |----|
口口口口
口口口口

口③③口
口②②口
口②②口 |----|
口口口口 |②-③-|
33
口口口口 |----|
口口口口 |----|
口口口口 |----|
口口口口 |----|
34
口①口口 |①---|
口口②口 |②---|
口③口口 |③---|
口口④口 |④---|
35
口口①口 |①---|
口②口口 |②---|
口口③口 |③---|
口④口口 |④---|
36
④口口① |----|
口口口② |----|
口口口③ |①-②-|
口口口口 |③-④-|
37
口口口口 |①---|
①口口口 |②---|
②口口口 |③-④-|
③④口口 |----|
38
①②③④ |----|
口口口口 |--①-|
口口口口 |--②-|
口口口口 |③-④-|
39
口口口口 |①-②-|
口口④③ |--③-|
口口口② |④---|
口口口① |----|
40
①②③④ |----|
口口口口 |----|
口口口口 |①-②-|
口口口口 |③-④-|
41
口口口口 |①---|
①②③④ |②---|
口口口口 |③-④-|
口口口口 |----|
42
口口口④ |----|
口口口③ |----|
口口口② |①-②-|
口口口① |③-④-|
43
①口口口 |①-②-|
②口口口 |--③-|
③口口口 |④---|
④口口口 |----|
44
①①④④ |----|
②②③③ |①---|
口口口口 |②---|
口口口口 |③-④-|
45
口口口口 |----|
口⑤⑤口 |①-②-|
①④④① |③-④-|
②③③② |--⑤-|
46
口①①口 |----|
口②口口 |①---|
口口②口 |②-③-|
④③③④ |--④-|
47
③④④③ |①-②-|
②⑤⑥② |③-④-|
①⑦口① |--⑤-|
口口口口 |⑥-⑦-|
48
④口口口 |--①-|
⑤口口口 |②-③-|
⑥口①口 |--④-|
口②③口 |⑤-⑥-|
49
口②⑤口 |①-②-|
口②⑥口 |--③-|
口③口口 |④---|
①④口口 |⑤-⑥-|
50
口口口② |①---|
口口口③ |----|
口口①④ |②---|
口口①④ |③-④-|
51
口口口口 |----|
口口口口 |----|
口口口口 |----|
口口口口 |----|
52
②①①② |①-②-|
③①①③ |③-④-|
口④④口 |⑤---|
⑥⑤⑤⑥ |⑥---|
53
③④④③ |①---|
②⑤⑤② |②-③-|
①口口① |④---|
口口口口 |⑤---|
54
口口口口 |①---|
①口口① |②-③-|
②⑤⑤② |④---|
③④④③ |⑤---|
55
④②②④ |①-②-|
③①①③ |--③-|
口口口口 |④---|
口口口口 |----|
56
口①①口 |①-②-|
口口④口 |③-④-|
口④口口
③③②②

⑥口口口
口⑤口口
口口⑤口 |⑤---|
口口口⑥ |⑥---|
57
口①②③ |①---|
口口⑤④ |②-③-|
④⑤口口 |④---|
③②①口 |⑤---|
58
口口口口 |①---|
口①口口 |②-③-|
口口①口
③②②③

口口口口
口⑤⑤口
④⑤⑤④ |④---|
口口口口 |⑤---|
59
口①②口 |①-②-|
③④④③ |--③-|
口口口口 |④---|
口⑤⑤口 |--⑤-|
60
④③③④ |①---|
口②②口 |----|
口①①口 |②--③|
口口口口 |--④-|
61
口口口口 |①---|
④口口④ |②---|
③①①③ |③---|
②①①② |④---|
62
口①①口 |①---|
口①①口 |----|
口口口口
口口口口

口③③口
口②②口
口②②口 |----|
口口口口 |②-③-|


不确定度: 0

最終更新:2012年12月03日 21:59