Love so sweet

BASIC

Level: 2
BPM: 139
Notes: 151

1
口口口口 |----|
口口口口 |----|
口口口口 |----|
口口口口 |----|
2
口口口口 |①---|
口口①口 |----|
口口口口 |----|
口口口口 |----|
3
口口口口 |①---|
口①口口 |----|
口口口口 |----|
口口口口 |----|
4
口口口口 |①---|
口口口口 |----|
口口①口 |----|
口口口口 |----|
5
口口口口 |①---|
口口口口 |----|
口①口口 |----|
口口口口 |----|
6
口口①口 |----|
口口②口 |①---|
口口③口 |--②-|
口口口口 |--③-|
7
口①口口 |----|
口②口口 |----|
口口口口 |①---|
口口口口 |②---|
8
口口②口 |①---|
口口③口 |②---|
口①④口 |--③-|
口口口口 |--④-|
9
口①口口 |----|
口②口口 |①---|
口③口口 |②---|
口口口口 |③---|
10
口口②口 |①---|
口口③口 |②---|
口口④口 |--③-|
口①口口 |--④-|
11
口口口口 |----|
口口口口 |----|
口口口口 |----|
口口口口 |----|
12
口口①口 |①---|
口②口口 |----|
口口口口 |②---|
口口口口 |----|
13
口口口口 |①---|
口口口口 |----|
口口①口 |②---|
口②口口 |----|
14
口口口口 |--①-|
口②①口 |----|
口口口口 |②---|
口口口口 |----|
15
口口口口 |①---|
口口口口 |----|
①口口口 |②---|
口②口口 |----|
16
口口口口 |①---|
口口口口 |----|
口口口② |②---|
口口①口 |----|
17
口口②口 |①---|
口口口① |----|
口口口口 |②---|
口口口口 |----|
18
口①口口 |①---|
②口口口 |----|
口口口口 |②---|
口口口口 |----|
19
口口口口 |①---|
口口口口 |----|
①②口口 |②---|
口口口口 |----|
20
口口口口 |①---|
口口口口 |----|
口口口口 |②---|
口口①② |----|
21
口口口口 |①---|
口口口② |----|
口口口① |②---|
口口口口 |----|
22
口口①口 |①---|
口②口口 |----|
口口口口 |②---|
口口口口 |----|
23
口口口口 |①---|
口口口口 |----|
口口口① |②---|
口口②口 |----|
24
口口口口 |①---|
口口口口 |----|
②口口口 |②---|
口①口口 |----|
25
口②口口 |①---|
①口口口 |----|
口口口口 |②---|
口口口口 |----|
26
口口①口 |①---|
口口口② |----|
口口口口 |②---|
口口口口 |----|
27
口口口口 |①---|
口口口口 |----|
口口②① |②---|
口口口口 |----|
28
口口口口 |①---|
口口口口 |----|
口口口口 |②---|
②①口口 |----|
29
口口口口 |①---|
②口口口 |----|
口①口口 |②---|
口口口口 |----|
30
口①口口 |①---|
口口口口 |----|
口口口口 |----|
口口口口 |----|
31
口口口口 |①---|
①口口口 |----|
口②口口 |②---|
口口口口 |----|
32
口口口口 |①---|
口口①口 |----|
口口口② |②---|
口口口口 |----|
33
口口口口 |①---|
口口口① |----|
口口②口 |②---|
口口口口 |----|
34
口口口口 |①---|
口①口口 |----|
②口口口 |②---|
口口口口 |----|
35
口口口口 |①---|
口口口口 |----|
口①①口 |----|
口口口口 |----|
36
口口口口 |①---|
口①①口 |----|
口口口口 |----|
口口口口 |----|
37
口①②口 |①---|
口口口口 |----|
口口口口 |②---|
口口口口 |----|
38
口口口口 |①---|
口①①口 |----|
口口口口 |----|
口口口口 |----|
39
口口口口 |----|
口口口口 |----|
口口口口 |----|
口口口口 |----|
40
口口口口 |----|
口口口口 |----|
口口口口 |----|
口口口口 |----|
41
口口口口 |①---|
口②①口 |②---|
口④③口 |③---|
口口口口 |④---|
42
口②③口 |①---|
①口口④ |②---|
口口口口 |③---|
口口口口 |④---|
43
口口口口 |①---|
口②①口 |②---|
口④③口 |③---|
口口口口 |④---|
44
口口口口 |①---|
口口口口 |②---|
①口口④ |③---|
口②③口 |④---|
45
口口口口 |----|
口口口① |①---|
口口②口 |----|
口口口口 |②---|
46
口②口口 |----|
口①口口 |①---|
口口口口 |----|
口口口口 |②---|
47
口口口口 |①---|
①口口口 |②---|
②口口口 |③---|
口③④口 |④---|
48
口口③口 |①---|
口口口② |②---|
口口口① |③---|
口口口口 |----|
49
口口口口 |①---|
口①②口 |②---|
口③④口 |③---|
口口口口 |④---|
50
口③②口 |①---|
④口口① |②---|
口口口口 |③---|
口口口口 |④---|
51
口口口口 |①---|
口①②口 |②---|
口③④口 |③---|
口口口口 |④---|
52
口口口口 |①---|
口口口口 |②---|
④口口① |③---|
口③②口 |④---|
53
口口口口 |①---|
口②①口 |----|
口口口口 |②---|
口口口口 |----|
54
口口口口 |①---|
口口口口 |----|
口②①口 |②---|
口口口口 |----|
55
口口口口 |①---|
①②③④ |②---|
口口口口 |③---|
口口口口 |④---|
56
口口①口 |①---|
口口②③ |②---|
口口口④ |--③-|
口口口口 |--④-|
57
口口口口 |----|
②①口口 |----|
口口口口 |①---|
口口口口 |②---|
58
口口口口 |①---|
口口②③ |②---|
①口口④ |--③-|
口口口口 |--④-|
59
口口口口 |----|
②①口口 |①---|
③口口口 |②---|
口口口口 |③---|
60
口口口口 |①---|
口口②③ |②---|
口口口④ |--③-|
口①口口 |--④-|
61
口口口口 |----|
口口口口 |----|
口口口口 |----|
口口口口 |----|
62
口口①口 |①---|
口口口② |②---|
口口口③ |③---|
口口④口 |④---|
63
口④口口 |①---|
③口口口 |②---|
②口口口 |③---|
口①口口 |④---|
64
口口口口 |①---|
口①①口 |----|
口口口口 |----|
口口口口 |----|


不确定度: 0

最終更新:2012年12月03日 21:58