Love so sweet

ADVANCED

Level: 4
BPM: 139
Notes: 267

1
口口口口 |----|
口口口口 |----|
口口口口 |----|
口口口口 |----|
2
口口①口 |①---|
口口口口 |----|
口口口口 |----|
口口口口 |----|
3
口口口口 |----|
口③口① |①---|
口口②口 |②---|
口口口口 |③---|
4
口口口口 |①---|
口口口口 |----|
①口口口 |----|
口②口口 |②---|
5
口口口口 |①---|
口口③口 |②-③-|
口口口② |----|
口口①口 |----|
6
口口口① |----|
口口②口 |①-②-|
口口口③ |--③-|
口口④口 |--④-|
7
口口口口 |----|
③④口口 |--①-|
口②口口 |--②-|
口①口口 |③-④-|
8
①口口② |①---|
口口③口 |②-③-|
口口口④ |--④-|
口口⑤口 |--⑤-|
9
口口口口 |----|
④⑤口口 |①-②-|
②③口口 |③-④-|
口①口口 |⑤---|
10
①口口② |①---|
口口③口 |②-③-|
口口口④ |--④-|
口口⑤口 |--⑤-|
11
口口口口 |----|
口口口口 |----|
口口口口 |----|
口口口口 |----|
12
口④口口 |①---|
③口口口 |②---|
②口口口 |③---|
口①口口 |④---|
13
口口①口 |①---|
口口口② |②---|
口口口③ |③---|
口口④口 |④---|
14
③④⑤口 |--①-|
口②②口 |----|
口①①口 |②-③-|
口口口口 |④-⑤-|
15
口口口① |①---|
口口口② |②-③-|
口口口③ |--④-|
口口⑤④ |--⑤-|
16
⑤口口口 |①---|
④口口口 |②-③-|
③口口口 |--④-|
②①口口 |--⑤-|
17
口①②口 |①-②-|
口口口③ |--③-|
口口口④ |--④-|
口口⑤口 |--⑤-|
18
口口口口 |--①-|
③口口口 |--②-|
②口口口 |--③-|
口①口口 |----|
19
①口口口 |①---|
口②③口 |----|
口口口口 |②---|
口口口口 |③---|
20
口口口口 |①---|
口口口口 |--②-|
口口①③ |----|
口口口② |③---|
21
口③②口 |①---|
④口口① |②---|
口口口口 |③---|
口口口口 |④---|
22
口⑥⑤④ |①---|
口口口口 |②-③-|
①口口口 |--④-|
口②③口 |⑤-⑥-|
23
①口口口 |①---|
②口口口 |②-③-|
③口口口 |--④-|
④⑤口口 |--⑤-|
24
口口口⑤ |①---|
口口口④ |②-③-|
口口口③ |--④-|
口口①② |--⑤-|
25
口②①口 |①-②-|
③口口口 |--③-|
④口口口 |--④-|
⑤口口口 |--⑤-|
26
口口口口 |----|
口口口④ |①-②-|
口口口③ |--③-|
口①②口 |--④-|
27
口①①口 |----|
口口口口 |----|
口口口口 |①---|
口口口口 |----|
28
口口口口 |①---|
①口口① |----|
口②②口 |②---|
口口口口 |----|
29
口口口① |①---|
口③②口 |②-③-|
口④口口 |--④-|
⑤口口口 |--⑤-|
30
口口口口 |----|
口口口口 |----|
口口口口 |----|
口口口口 |----|
31
①口口口 |①---|
②口口口 |②-③-|
③口口口 |--④-|
④⑤口口 |--⑤-|
32
口口③口 |--①-|
口②口口 |--②-|
口口①口 |--③-|
口口口口 |----|
33
口口口① |①---|
口口口② |②-③-|
口口口③ |--④-|
口口⑤④ |--⑤-|
34
口③口口 |--①-|
口口②口 |--②-|
口①口口 |--③-|
口口口口 |----|
35
口口口口 |①---|
①口口口 |--②-|
口②口口 |③---|
口口③口 |----|
36
口③口口 |①---|
口口②口 |--②-|
口口口① |③---|
口口口口 |----|
37
口口口口 |①---|
口⑤口① |②-③-|
④口②口 |--④-|
口③口口 |--⑤-|
38
口口①口 |①---|
口口口口 |----|
口口口口 |----|
口口口口 |----|
39
口口口口 |----|
口口口口 |----|
口口口口 |----|
口口口口 |----|
40
①口口口 |----|
口②口口 |--①-|
口口③口 |--②-|
口口口④ |③-④-|
41
口④⑤口 |①---|
③口②口 |②-③-|
口①口口 |--④-|
口口口口 |--⑤-|
42
口口口口 |--①-|
⑥口口① |②-③-|
⑤口口② |④---|
口④③口 |⑤-⑥-|
43
口⑤④口 |①---|
口②口③ |②-③-|
口口①口 |--④-|
口口口口 |--⑤-|
44
口口口口 |--①-|
①口口⑥ |②-③-|
②口口⑤ |④---|
口③④口 |⑤-⑥-|
45
③口①口 |--①-|
④②口口 |②-③-|
口⑤口口 |--④-|
⑥口口口 |⑤-⑥-|
46
口口口口 |--①-|
口口口口 |②-③-|
口口②④ |--④-|
口①⑤③ |--⑤-|
47
口④⑤口 |①---|
③口⑥口 |②-③-|
②口口口 |--④-|
口①口口 |⑤-⑥-|
48
口口口口 |--①-|
口口口① |②-③-|
口口口② |----|
④口③口 |--④-|
49
口④口口 |①---|
③口②⑤ |②-③-|
口①口口 |--④-|
口口口口 |--⑤-|
50
口⑥⑦口 |①-②-|
⑤口口口 |③-④-|
④口口① |⑤-⑥-|
口③②口 |⑦---|
51
口⑤④口 |①---|
口②口③ |②-③-|
口口①口 |--④-|
口口口口 |--⑤-|
52
口口口口 |--①-|
①口口⑤ |--②-|
②口④口 |--③-|
口③口口 |④-⑤-|
53
口②①口 |①---|
③口口口 |②---|
④⑤口口 |③---|
口口口口 |④-⑤-|
54
口口口口 |①---|
口口口⑤ |②-③-|
口口③④ |④---|
口①②口 |⑤---|
55
口①①口 |①---|
②口口② |----|
口口口口 |②---|
口口口口 |----|
56
口口口② |①---|
口口③口 |②-③-|
口①①④ |--④-|
口口⑤口 |--⑤-|
57
口口口口 |----|
③④口口 |--①-|
口②口口 |--②-|
口①口口 |③-④-|
58
①口口② |①---|
口口③口 |②-③-|
口口口④ |--④-|
口口⑤口 |--⑤-|
59
口口口口 |----|
④⑤口口 |①-②-|
②③口口 |③-④-|
口①口口 |⑤---|
60
①口口② |①---|
口口③口 |②-③-|
口口口④ |--④-|
口口⑤口 |--⑤-|
61
口口口口 |----|
口口口口 |----|
口口口口 |----|
口口口口 |----|
62
口口口口 |①---|
口①①口 |②---|
②口口② |③---|
④③③④ |④---|
63
④③③④ |①---|
②口口② |②---|
口①①口 |③---|
口口口口 |④---|
64
口口口口 |①---|
口①①口 |----|
①口口① |----|
口口口口 |----|


不确定度: 0

最終更新:2012年12月03日 21:58