Love so sweet

EXTREME

Level: 6
BPM: 139
Notes: 451

1
口口口口 |----|
口口口口 |----|
口口口口 |----|
口口口口 |----|
2
口①口口 |①-②-|
口口②口 |③-④-|
口口③口 |--⑤-|
⑤④口口 |----|
3
口口①口 |①-②-|
口②口口 |③-④-|
口③口口 |----|
口口④⑤ |⑤---|
4
口①①口 |①-②-|
②口口② |③-④-|
③口口③ |--⑤-|
⑤④④⑤ |----|
5
口口口口 |①---|
①口口① |②-③-|
口②②口 |----|
③口口③ |----|
6
①口口口 |----|
口②③④ |①-②-|
口口口口 |--③-|
口口口口 |--④-|
7
口口口口 |①---|
口⑤口口 |--②-|
口④③① |--③-|
口口口② |④-⑤-|
8
①口口② |①---|
⑤④③口 |②-③-|
口口口口 |--④-|
口口口口 |--⑤-|
9
口口口口 |①---|
口口⑥口 |②-③-|
①④⑤口 |④-⑤-|
②③口口 |⑥---|
10
口②②① |①---|
③口口③ |②-③-|
⑤④④⑤ |--④-|
口⑤⑤口 |--⑤-|
11
口口口口 |①---|
口口口口 |----|
口口口口 |----|
①口口① |----|
12
⑦⑥⑥⑦ |①-②-|
⑤⑧⑧⑤ |③-④-|
①④④① |⑤-⑥-|
③②②③ |⑦-⑧-|
13
⑦⑥⑥⑦ |①-②-|
⑤⑧⑧⑤ |③-④-|
①④④① |⑤-⑥-|
③②②③ |⑦-⑧-|
14
口④⑤口 |--①-|
③口口口 |----|
①口口① |②-③-|
口②②口 |④-⑤-|
15
口口口口 |①---|
口③②① |②-③-|
口②④口 |--④-|
口⑤口口 |--⑤-|
16
口口③口 |①---|
口口②④ |②-③-|
①②⑤口 |--④-|
口口口口 |--⑤-|
17
口口口口 |①-②-|
口②③口 |--③-|
⑤①口④ |--④-|
口⑤④口 |--⑤-|
18
口①②口 |--①-|
①③④② |--②-|
口④③口 |--③-|
口口口口 |--④-|
19
①②口口 |①---|
②口③口 |----|
口③口口 |②---|
口口口口 |③---|
20
口口口口 |①---|
口口口口 |--②-|
③③口① |----|
口口①② |③---|
21
②②③③ |①---|
④④①① |②---|
口口口口 |③---|
口口口口 |④---|
22
口⑥⑤口 |①---|
口口口④ |②-③-|
口口①① |--④-|
②②③③ |⑤-⑥-|
23
口口口口 |①---|
①②③口 |②-③-|
口④②口 |--④-|
口口⑤口 |--⑤-|
24
口口口口 |①---|
口②③口 |②-③-|
口④②① |--④-|
口⑤⑤口 |--⑤-|
25
③④⑤③ |①-②-|
④②②⑤ |--③-|
①口口① |--④-|
口口口口 |--⑤-|
26
口口口口 |----|
口③④口 |①-②-|
①④口② |--③-|
口①②口 |--④-|
27
口口口口 |①---|
口口口口 |----|
口口①③ |②---|
口口③② |③---|
28
口④③② |①---|
④口口① |②---|
③口口口 |③---|
②①口口 |④---|
29
①口②口 |①---|
口③口口 |②-③-|
口口④口 |--④-|
口⑤口口 |--⑤-|
30
口口口口 |----|
口口口口 |----|
口口口口 |----|
口口口口 |----|
31
①②口口 |①---|
②①③口 |②-③-|
口④口口 |--④-|
⑤口口口 |--⑤-|
32
口口③④ |--①-|
口②口③ |--②-|
①口②口 |--③-|
口①口口 |--④-|
33
口口口口 |①---|
口②①口 |②-③-|
口①③⑤ |--④-|
口口⑤④ |--⑤-|
34
③②口口 |--①-|
②口①口 |--②-|
口①口口 |--③-|
口口口口 |----|
35
③③③③ |①---|
②①①② |--②-|
口口口口 |③---|
口口口口 |----|
36
③③③③ |①---|
②①①② |--②-|
口口口口 |③---|
口口口口 |----|
37
口口口口 |①---|
②①④⑤ |②-③-|
③②⑤口 |--④-|
口口口口 |--⑤-|
38
口口口口 |①---|
口口口口 |----|
口口口① |----|
口口口口 |----|
39
口口口口 |----|
口口口口 |----|
口口口口 |----|
口口口口 |----|
40
①口口口 |----|
口口②口 |--①-|
口③口口 |--②-|
口口口④ |③-④-|
41
④⑤⑤口 |①---|
③④口② |②-③-|
口口②① |--④-|
口口口口 |--⑤-|
42
⑥口口⑥ |--①-|
①⑤⑤① |②-③-|
②④④② |④---|
口③③口 |⑤-⑥-|
43
口⑤⑤口 |①---|
口口口口 |②-③-|
④口口② |--④-|
③④②① |--⑤-|
44
⑦口口⑦ |--①-|
⑥①①⑥ |②-③-|
⑤②②⑤ |④-⑤-|
④③③④ |⑥-⑦-|
45
口口口口 |--①-|
口④①口 |②-③-|
口②⑤口 |--④-|
⑥⑥③③ |⑤-⑥-|
46
④①①口 |--①-|
②⑤口② |②-③-|
③口口③ |--④-|
口口口口 |--⑤-|
47
口口口口 |①---|
口口③口 |②-③-|
口②①口
口口口口

口口口④
口口口⑤
口口⑥口 |--④-|
口口口口 |⑤-⑥-|
48
③口④口 |--①-|
②口口口 |②-③-|
口①口口 |----|
口口口口 |--④-|
49
④口口② |①---|
③④②① |②-③-|
口口口口 |--④-|
口⑤⑤口 |--⑤-|
50
④③③④ |①-②-|
②⑤⑤② |③-④-|
①⑥⑥① |⑤-⑥-|
⑦口口⑦ |⑦---|
51
口口口② |①---|
③口②① |②-③-|
口口口口
口口口口

④口口口
口④口⑤
口口口口 |--④-|
口口口口 |--⑤-|
52
口口口口 |--①-|
④⑤口口 |--②-|
③④①口 |--③-|
口②口口 |④-⑤-|
53
口口①口 |①---|
口口口① |②---|
口口口②
口口②口

口④⑤口
④口口⑤
③口口口 |③---|
口③口口 |④-⑤-|
54
口口口① |①---|
口③②口 |②-③-|
口④③口 |④---|
⑤口口口 |⑤---|
55
③④口口 |①---|
②口口口 |②---|
①口口④ |③---|
口①②③ |④---|
56
口口①② |①---|
⑤④③① |②-③-|
口口口口 |--④-|
口口口口 |--⑤-|
57
口口口口 |①---|
口口⑤口 |--②-|
①③④口 |--③-|
②口口口 |④-⑤-|
58
②口口① |①---|
口③④⑤ |②-③-|
口口口口 |--④-|
口口口口 |--⑤-|
59
口口口口 |①---|
口⑥口口 |②-③-|
口⑤④① |④-⑤-|
口口③② |⑥---|
60
①②②口 |①---|
③口口③ |②-③-|
⑤④④⑤ |--④-|
口⑤⑤口 |--⑤-|
61
口口口口 |①---|
口口口口 |----|
口口口口 |----|
①口口① |----|
62
⑦⑥⑥⑦ |①-②-|
⑤⑧⑧⑤ |③-④-|
①④④① |⑤-⑥-|
③②②③ |⑦-⑧-|
63
⑦⑥⑥⑦ |①-②-|
⑤⑧⑧⑤ |③-④-|
①④④① |⑤-⑥-|
③②②③ |⑦-⑧-|
64
口口口口 |①---|
口口口口 |----|
①口口① |----|
口①①口 |----|


不确定度: 0

最終更新:2012年12月03日 21:58