粉雪

BASIC

Level: 3
BPM: 82
Notes: 247

1
口口口口 |----|
口口口口 |----|
口口口口 |----|
口口口口 |----|
2
口①口口 |①---|
口口②口 |②---|
口④口③ |③---|
口口口口 |--④-|
3
口口口口 |①-②-|
口②口口 |③-④-|
口口③口
①口口④

口口口口
口⑤口口
口口口口 |----|
口口口口 |--⑤-|
4
口④④口 |①---|
口口②口 |--②-|
口③①口 |③---|
口口口口 |--④-|
5
口口口口 |①-②-|
口①①口 |----|
口②②口
口口口口

口口口口
口③口口
口口口口 |----|
口口口口 |--③-|
6
口口口口 |①---|
①口②③ |--②-|
口口口口 |③---|
口口口口 |----|
7
①口口⑤ |①-②-|
口②口口 |③-④-|
口口③口 |----|
口口口④ |--⑤-|
8
口口①口 |①---|
②③口口 |--②-|
口口口口 |③---|
口④④口 |--④-|
9
口口口口 |①-②-|
口②②口 |----|
口①①口
口口口口

口③口口
口口④口
口口口⑤ |--③-|
口口口口 |④-⑤-|
10
口口口口 |①-②-|
①口口口 |③---|
口②口口 |----|
口口③口 |----|
11
①口口⑧ |①-②-|
②口口⑦ |③-④-|
③口口⑥ |⑤-⑥-|
④口口⑤ |⑦-⑧-|
12
口①①口 |①---|
口②口口 |----|
口口③口 |②---|
口口口口 |③---|
13
口口口口 |①---|
口口②口 |②---|
口③口口 |③---|
口①④口 |④---|
14
①口口① |①---|
②口口口 |--②-|
口口口口
口口口口

口口口④
口口口③
口口口口 |③---|
口口口口 |--④-|
15
④口口④ |①-②-|
口口①口 |③---|
⑤②口⑤ |④---|
③口口口 |--⑤-|
16
口④④口 |①---|
①③③① |--②-|
口②②口 |③---|
口口口口 |--④-|
17
口口口③ |①-②-|
口①①口 |----|
口②②口 |----|
口口口口 |--③-|
18
②③①口 |①---|
④口口口 |--②-|
口口口口 |③---|
口口口口 |--④-|
19
⑤口口口 |①-②-|
口①②③ |③-④-|
口④④口 |----|
口口口口 |--⑤-|
20
口①口口 |①---|
口口口② |--②-|
口口口口
口口口口

口④④口
口口③口
口口口口 |③---|
口口口口 |--④-|
21
口口口口 |①-②-|
口①①口 |----|
口②②口
口口口口

口口口口
口⑤④③
口口口口 |--③-|
口口口口 |④-⑤-|
22
口口口口 |①-②-|
①口口口 |----|
口②②口 |----|
口口口口 |----|
23
④口口⑤ |--①-|
口③⑥口 |②-③-|
口⑦②口 |④-⑤-|
口口口① |⑥-⑦-|
24
口口口口 |①---|
口口口口 |----|
口口口口
①口口口

口②②口
③口口③
口④④口 |②-③-|
⑤口口⑤ |④-⑤-|
25
口口口口 |①---|
②①①② |②---|
③④⑤⑥ |③-④-|
口口口口 |⑤-⑥-|
26
①①①① |①---|
③④⑤口 |--②-|
②②②② |--③-|
口口口口 |④-⑤-|
27
口口口口 |①-②-|
口口口① |----|
口②②口
口口口口

③口口口
口④口口
口口⑤口 |--③-|
口口口口 |④-⑤-|
28
⑥口口② |①-②-|
口口③口 |③-④-|
口④口口 |⑤---|
⑤口口① |--⑥-|
29
口①口口 |①---|
口口口④ |--②-|
口口口口 |③---|
口口③② |--④-|
30
口口口口 |①-②-|
③②①口 |③-④-|
口④④口
口口口口

口口口口
⑤口口口
口口口口 |----|
口口口口 |--⑤-|
31
口口口口 |①-②-|
口①②③ |③-④-|
口④④口
口口口口

口⑤⑤口
口⑥⑥口
⑦口口⑦ |⑤-⑥-|
⑧口口⑧ |⑦-⑧-|
32
口口口口 |①---|
口口口口 |----|
口①①口
口口口口

口口口口
口④④口
口③③口 |--②-|
口②②口 |③-④-|
33
口①①口 |①---|
口口口口 |----|
口口口口 |----|
口口口口 |----|
34
①口口口 |①-②-|
口②口口 |③-④-|
③口口口
口④口口

⑧口口口
口口口⑤
口口⑥口 |⑤-⑥-|
口口口⑦ |⑦-⑧-|
35
口口口口 |①---|
口口①② |--②-|
口口口口
口口口口

口口口口
口④④口
口③口口 |③---|
口口口口 |--④-|
36
口口口口 |--①-|
口⑦⑥⑤ |②-③-|
①②③④ |④-⑤-|
口口口口 |⑥-⑦-|
37
②口口② |①---|
①③③口 |②---|
④口口④ |③---|
口口口口 |④---|
38
②口口口 |①---|
口③口口 |②-③-|
口口口口
口①①口

口口口口
口口口口
口口④口 |④-⑤-|
口口⑥⑤ |--⑥-|
39
④③②口 |①---|
口口口口 |--②-|
口口口口 |③---|
口①口口 |--④-|
40
口口口① |①-②-|
口④口口 |③-④-|
口口③口
口口口②

⑤口口⑥
口口⑦口
口⑧口口 |⑤-⑥-|
口口口口 |⑦-⑧-|
41
②口口口 |①-②-|
⑧③口⑧ |③-④-|
⑦口④⑦ |⑤-⑥-|
①⑥⑥⑤ |⑦-⑧-|
42
①口口① |①---|
口口口口 |----|
口口口口 |----|
口口口口 |----|


不确定度: 0

最終更新:2012年12月03日 21:58