粉雪

ADVANCED

Level: 4
BPM: 82
Notes: 408

1
口口口口 |----|
口口口口 |----|
口口口口 |----|
口口口口 |----|
2
口①口① |①---|
②口②口 |②---|
口③口③ |③---|
④④口口 |--④-|
3
④③③④ |①-②-|
口口②② |③-④-|
口①①口 |----|
口口⑤⑤ |--⑤-|
4
口口口口 |①---|
口口②② |--②-|
①①口口
口口口口

③③口口
口口口口
④口口口 |③---|
口④口口 |--④-|
5
②口③③ |①-②-|
口②口① |----|
口口①口 |----|
口口口口 |--③-|
6
口口口口 |①---|
①①口口 |--②-|
口口②② |③---|
③③口口 |----|
7
⑥⑥①① |①-②-|
口②②口 |③-④-|
③③口口 |⑤---|
⑤④④⑤ |--⑥-|
8
④口口口 |①---|
口④①① |--②-|
②②口口 |③---|
口口③③ |--④-|
9
口口口口 |①-②-|
口口口① |----|
②口①口
口②口口

③口③口
口④口④
⑤口⑤口 |--③-|
口口口口 |④-⑤-|
10
②③③② |①-②-|
口口口口 |③---|
口口口口 |----|
口①口① |----|
11
⑦①①⑦ |--①-|
⑥②②⑥ |②-③-|
⑤③③⑤ |④-⑤-|
④口口④ |⑥-⑦-|
12
口口口口 |----|
①口口① |----|
口②②口 |①---|
口口口口 |②---|
13
口口口口 |①---|
口④④口 |②---|
③口口③ |③---|
①②②① |④---|
14
①口①口 |①---|
口②口② |--②-|
口口口口
口口口口

口口④④
口口口口
③口③口 |③---|
口口口口 |--④-|
15
⑤⑤口口 |①-②-|
口①①口 |③---|
②②口口 |④---|
④③③④ |--⑤-|
16
口口口口 |①---|
口口①① |--②-|
②②口口
口口口口

口口口口
口口口口
④口口口 |③---|
口④③③ |--④-|
17
②口③③ |①-②-|
口②口① |----|
口口①口 |----|
口口口口 |--③-|
18
口口④④ |①---|
①①口口 |--②-|
口口②② |③---|
③③口口 |--④-|
19
⑤⑤口口 |①-②-|
口①①口 |③-④-|
②②口口 |----|
④③③④ |--⑤-|
20
④口口口 |①---|
口④①① |--②-|
②②口口 |③---|
口口③③ |--④-|
21
口口口口 |①-②-|
口口口① |----|
②口①口
口②口口

口③③口
④口口④
口⑤⑤口 |--③-|
口口口口 |④-⑤-|
22
口口口口 |①-②-|
口口口口 |----|
口口口口 |----|
①②②① |----|
23
口④④口 |--①-|
③⑤⑤③ |②-③-|
②⑥⑥② |④-⑤-|
①⑦⑦① |⑥-⑦-|
24
①①①① |①---|
口口口口 |----|
口口口口
口口口口

③②②③
④口口④
⑤口口⑤ |②-③-|
口口口口 |④-⑤-|
25
③②②③ |①---|
④口口④ |②---|
⑤口口⑤ |③-④-|
⑥①①⑥ |⑤-⑥-|
26
①②②① |①②③-|
口③③口 |--④⑤|
④⑤⑤④
口口口口

口口⑦⑦
口⑧⑧口
⑨⑨口口 |⑥-⑦-|
口⑥⑥口 |⑧-⑨-|
27
③口口③ |①-②-|
口④④口 |----|
⑤口口⑤ |--③-|
②①①② |④-⑤-|
28
口口口口 |①-②-|
④口口④ |③-④-|
口③③口
②①①②

⑥⑤⑤⑥
口口⑦⑦
口口口口 |⑤-⑥-|
口口口口 |--⑦-|
29
④口口④ |①---|
①①口口 |--②-|
口口口口 |③---|
③③②② |--④-|
30
口⑤⑤口 |①-②-|
①口口① |③-④-|
②口口② |----|
③④④③ |--⑤-|
31
④口口④ |①-②-|
口①①口 |③-④-|
口②②口
口③③口

口口口口
⑤⑧⑧⑤
⑥口口⑥ |⑤-⑥-|
⑦口口⑦ |⑦-⑧-|
32
口①①口 |①---|
口口口口 |----|
口④④口 |--②-|
②③③② |③-④-|
33
①①①① |①---|
口口口口 |----|
口口口口 |----|
口口口口 |----|
34
口①①口 |①-②-|
③②②③ |③-④-|
④口口④
口口口口

⑧口⑧口
口口口口
口⑤⑤口 |⑤-⑥-|
⑦⑥⑥⑦ |⑦-⑧-|
35
④④④④ |①---|
口①口① |--②-|
②口②口 |③---|
口③口③ |--④-|
36
④⑤④⑤ |--①-|
⑥③⑥③ |②-③-|
②⑦②⑦ |④-⑤-|
口①口① |⑥-⑦-|
37
②口口② |①---|
③口口③ |②-③-|
口口口口
①口①口

口口口口
口④④口
⑥⑤⑤⑥ |④-⑤-|
⑦口口⑦ |⑥-⑦-|
38
口②口② |①---|
③口③口 |②-③-|
口口口口
口①①口

口口口口
口口口口
口④口④ |④-⑤-|
⑤⑥⑤⑥ |--⑥-|
39
口②口② |①---|
口口口口 |--②-|
①口①口
口口口口

④口口④
③口③口
口口口口 |③---|
口口口口 |--④-|
40
⑤⑥⑥⑤ |①-②-|
⑦④④⑦ |③-④-|
③⑧⑧③ |⑤-⑥-|
①②②① |⑦-⑧-|
41
口口口口 |①-②-|
口④④口 |③-④-|
③口口③
①②②①

⑥⑤⑤⑥
⑦口口⑦
⑧口口⑧ |⑤-⑥-|
口口口口 |⑦-⑧-|
42
口口口口 |①---|
口口口口 |----|
口口口口 |----|
①①①① |----|


不确定度: 0

最終更新:2012年12月03日 21:57