粉雪

EXTREME

Level: 6
BPM: 82
Notes: 591

1
口口口口 |----|
口口口口 |----|
口口口口 |----|
口口口口 |----|
2
口①口① |①-②-|
②口②口 |③-④-|
口③口③
④口④口

⑥⑥口口
口⑤口⑤
⑤口⑤口 |⑤---|
口口口口 |--⑥-|
3
口口②② |①-②-|
口口口口 |③-④-|
①①③③
④④④④

口口口口
口口口口
口口口口 |----|
口口⑤⑤ |--⑤-|
4
口口口口 |①---|
口口②② |--②-|
①①口口
口口口口

③③口口
口口口口
④口口口 |③---|
口④口口 |--④-|
5
②③口③ |①-②-|
④②④① |③-④-|
口口①口
口口口口

口口⑧⑧
口口口口
口⑤口⑤ |⑤-⑥-|
⑥⑦⑥⑦ |⑦-⑧-|
6
口口口口 |①---|
①①口口 |--②-|
口口②② |③---|
③③口口 |----|
7
口①口① |①-②-|
②口②口 |-③--④---|
口③口③
④口④口

⑧⑧⑤⑤
⑥⑥口口
口口⑦⑦ |⑤-⑥-|
口口口口 |⑦-⑧-|
8
④口口口 |①---|
口④①① |--②-|
②②口口 |③---|
口口③③ |--④-|
9
口口口口 |①-②-|
口口口① |----|
②口①口
口②口口

口③④⑤
③口口⑥
④口口⑦ |--③④|
⑤⑥⑦口 |⑤⑥-⑦|
10
③②③口 |①-②-|
②④①④ |③---|
⑤①⑤口 |④---|
口口口口 |⑤---|
11
⑤④④⑤ |--①②|
口③③口 |③④-⑤|
口②②口
口①①口

口口口口
⑥⑩⑩⑥
⑦⑨⑨⑦ |⑥⑦-⑧|
⑧口口⑧ |-⑨⑩-|
12
①口口① |①---|
口口口口 |②-③-|
口口口口
②③③②

⑥口口⑥
口口口口
⑤④④⑤ |④---|
口口口口 |⑤-⑥-|
13
⑤④④⑤ |①---|
②①①② |②-③-|
口③③口 |④---|
口口口口 |⑤---|
14
③口③口 |①-②-|
口②口② |--③-|
口口口口
①口①口

⑤⑤口口
⑥⑥口口
口④口④ |④---|
口口口口 |--⑤⑥|
15
口口②② |①-②③|
口口③③ |④---|
①①④④
口口口口

⑥⑥口口
口口⑥⑥
口口口口 |⑤---|
⑤⑤⑤⑤ |--⑥-|
16
口口①① |①---|
①①口口 |--②-|
②②口口
口口②②

④口口口
⑤口口口
口口③③ |③---|
③③⑤④ |--④⑤|
17
口口③口 |①-②③|
口②口③ |----|
①口②口
口①口口

④④口口
口口④④
口口口口 |----|
口口口口 |--④-|
18
口口①① |①---|
①①口口 |--②-|
口口②②
②②口口

④④口口
⑤⑤口口
③③口口 |③---|
口口③③ |--④⑤|
19
口口②② |①-②③|
口口③③ |④---|
①①④④
口口口口

⑥⑥⑦⑦
口口口口
口口口口 |⑤---|
⑤⑤⑤⑤ |--⑥⑦|
20
口口口口 |①②--|
②②①① |--③④|
③③④④
口口口口

口⑦口口
⑦口⑧口
口⑧口口 |⑤⑥--|
⑥⑥⑤⑤ |--⑦⑧|
21
口口口③ |①-②③|
口口口② |----|
口口口①
③②①口

口④④口
⑤口口⑤
口⑥⑥口 |--④-|
口口口口 |⑤-⑥-|
22
③③③③ |①-②-|
口④④口 |③-④-|
口口口口
①②②①

口口口口
⑤口口⑤
口⑦⑦口 |⑤---|
⑥⑥⑥⑥ |⑥-⑦-|
23
②口口② |①-②③|
③①①③ |④⑤-⑥|
④口口④
⑤⑥⑥⑤

口⑨⑨口
⑩⑧⑧⑩
口⑦⑦口 |⑦-⑧⑨|
口口口口 |--⑩-|
24
口口口口 |①---|
口口口口 |----|
口口口口
①①①①

⑤口口⑤
口④④口
③口口③ |②-③-|
口②②口 |④-⑤-|
25
口口口口 |①---|
②②口口 |②-③-|
③③口口
①口口①

口口口口
口口⑤⑤
口口⑥⑥ |④-⑤-|
④④⑦⑦ |⑥-⑦-|
26
①②②① |①②③-|
口③③口 |--④⑤|
口口口口
④⑤⑤④

⑦口口口
口⑧口口
口⑥⑥口 |⑥-⑦⑧|
口口口口

口口口口
口口口口
⑨口⑪口
口口口⑩ |⑨-⑩⑪|
27
口口②③ |①②③-|
口口口① |----|
口口口口
口口口口

口口⑥口
口口口⑤
⑥口口④ |--④-|
口⑤④口 |⑤-⑥-|
28
②①口口 |①-②-|
①口口口 |③-④-|
④④④④
③③③③

⑥⑥⑥⑥
⑤⑤⑤⑤
⑦⑦口口 |⑤-⑥-|
口口⑦⑦ |--⑦-|
29
②②口口 |①---|
口口②② |--②-|
口口①①
①①口口

口口③③
③③口口
口口口口 |③---|
④④④④ |--④-|
30
③④④③ |①-②-|
②②②② |③-④⑤|
①⑤⑤①
口口口口

口⑥⑥口
口口口口
口口口口 |----|
口口口口 |--⑥-|
31
口口口口 |①-②-|
口①①口 |③-④-|
口②②口
④③③④

⑤⑤⑤⑤
⑥⑥⑥⑥
⑦⑦⑦⑦ |⑤-⑥-|
⑧⑧⑧⑧ |⑦-⑧-|
32
①①①① |①---|
口口口口 |----|
口口口口
口口口口

口④④口
④③③④
③②②③ |--②-|
②口口② |③-④-|
33
①口口① |①---|
口口口口 |----|
口④④口 |②-③-|
③②②③ |④---|
34
③③④④ |①-②-|
①①②② |③-④-|
口口口口
口口口口

⑧⑧口口
⑤⑤⑧⑧
口口⑥⑥ |⑤-⑥-|
⑦⑦⑦⑦ |⑦-⑧-|
35
口口①① |①---|
①①口口 |--②-|
②②口口
口口②②

④口④口
口④口④
口口③③ |③---|
③③口口 |--④-|
36
口口口① |--①-|
口口②口 |②-③-|
口口口③
口口口口

口④口⑦
⑤口口口
口⑥口口 |④-⑤-|
⑦口④口 |⑥-⑦-|
37
③口⑥口 |①-②-|
口④①⑦ |③-④-|
⑤口⑧② |⑤-⑥-|
口⑥③口 |⑦-⑧-|
38
②口口② |①---|
③口口③ |②-③-|
口口口口
口口口①

⑥口⑥口
口⑥口⑥
④口口④ |④-⑤-|
⑤口口⑤ |--⑥-|
39
口①口① |①---|
①口①口 |--②-|
②口②口
口②口②

口④④口
口口口口
口③口③ |③---|
③口③口 |--④-|
40
③④④③ |①-②-|
④③③④ |③-④-|
②口口②
①②②①

⑨口口⑨
口⑧⑧口
⑦⑤⑤⑦ |⑤-⑥⑦|
⑥⑥⑥⑥ |--⑧⑨|
41
口口口口 |--①-|
口③③口 |②-③-|
口②②口
口①①口

④口口④
⑤口口⑤
口⑦⑦口 |④-⑤-|
口⑥⑥口 |⑥-⑦-|
42
②②②② |①---|
口①①口 |②---|
口口口口
口口口口

口口口口
③③③③
④④④④ |③---|
口口口口 |④---|
43
口口口口 |①---|
口口口口 |----|
口口口口 |----|
①①①① |----|


不确定度: 0

最終更新:2012年12月03日 21:57