キスしてほしい

BASIC

Level: 3
BPM: 194
Notes: 270

1
口口口口 |----|
口口口口 |----|
口口口口 |----|
口口口口 |----|
2
口口口口 |①---|
口口口口 |----|
口口口口 |----|
口①口口 |----|
3
口口口口 |----|
口①口口 |----|
口②口口 |①---|
口口口口 |②---|
4
口口口口 |①---|
口口口口 |----|
口口口口 |----|
口口①口 |----|
5
口口口口 |----|
口口①口 |----|
口口②口 |①---|
口口口口 |②---|
6
口口口口 |①---|
口口口口 |----|
口口口口 |----|
口①①口 |----|
7
口口口口 |----|
口①①口 |----|
口②②口 |①---|
口口口口 |②---|
8
口口口口 |----|
口口口口 |----|
口口口口 |----|
口口口口 |----|
9
口口口口 |----|
口口口口 |----|
口口口口 |----|
口口口口 |----|
10
①②③口 |①---|
口口口口 |②---|
口口口口 |③---|
口口口口 |----|
11
口口口口 |①---|
①②③④ |②---|
口口口口 |③---|
口口口口 |④---|
12
口口口口 |①---|
口口口口 |②---|
口③②① |③---|
口口口口 |----|
13
口口口口 |①---|
口口口口 |②---|
口口口口 |③---|
④③②① |④---|
14
①②③口 |①---|
口口口口 |②---|
口口口口 |③---|
口口口口 |----|
15
口口口口 |①---|
①②③④ |②---|
口口口口 |③---|
口口口口 |④---|
16
口口口口 |①---|
口口口口 |②---|
口③②① |③---|
口口口口 |----|
17
口口口口 |①---|
口口口口 |②---|
口口口口 |③---|
④③②① |④---|
18
①②③口 |①---|
口口口口 |②---|
口口口口 |③---|
口口口口 |----|
19
口口口口 |①---|
①②③④ |②---|
口口口口 |③---|
口口口口 |④---|
20
口口口口 |①---|
口口口口 |②---|
口③②① |③---|
口口口口 |----|
21
口口口口 |①---|
口口口口 |②---|
口口口口 |③---|
④③②① |④---|
22
①②③口 |①---|
口口口口 |②---|
口口口口 |③---|
口口口口 |----|
23
口口口口 |①---|
①②③④ |②---|
口口口口 |③---|
口口口口 |④---|
24
口口口口 |①---|
口口口口 |②---|
口③②① |③---|
口口口口 |----|
25
口口口口 |①---|
口口口口 |②---|
口口口口 |③---|
④③②① |④---|
26
①②③④ |①---|
口口口口 |②---|
口口口口 |③---|
口口口口 |④---|
27
口口口口 |①---|
口口口① |②---|
口口口② |③---|
口口口③ |----|
28
④③②① |①---|
口口口口 |②---|
口口口口 |③---|
口口口口 |④---|
29
口口口口 |①---|
①口口口 |②---|
②口口口 |③---|
③口口口 |----|
30
口口口① |①---|
口口口② |②---|
口口口③ |③---|
口口口④ |④---|
31
口口口口 |①---|
口口口口 |②---|
口口口口 |③---|
③②①口 |----|
32
①口口口 |①---|
②口口口 |②---|
③口口口 |③---|
④口口口 |④---|
33
口口口口 |①---|
口口口口 |②---|
口口口口 |③---|
口①②③ |----|
34
①②③④ |①---|
口口口口 |②---|
口口口口 |③---|
口口口口 |④---|
35
口口口口 |①---|
口口口① |②---|
口口口② |③---|
口口口③ |----|
36
④③②① |①---|
口口口口 |②---|
口口口口 |③---|
口口口口 |④---|
37
口口口口 |①---|
①口口口 |②---|
②口口口 |③---|
③口口口 |----|
38
口①①口 |①---|
口②②口 |②---|
口③③口 |③---|
口④④口 |④---|
39
口口口口 |①---|
③口口③ |②---|
②口口② |③---|
①口口① |----|
40
口④④口 |①---|
口③③口 |②---|
口②②口 |③---|
口①①口 |④---|
41
①口口① |①---|
②口口② |②---|
③口口③ |③---|
口口口口 |----|
42
①②③④ |①---|
口口口口 |②---|
口口口口 |③---|
口口口口 |④---|
43
口口口口 |①---|
①②③口 |②---|
口口口口 |③---|
口口口口 |----|
44
口口口口 |①---|
口口口口 |②---|
口口口口 |③---|
④③②① |④---|
45
口口口口 |①---|
口口口口 |②---|
口③②① |③---|
口口口口 |----|
46
④口口口 |①---|
③口口口 |②---|
②口口口 |③---|
①口口口 |④---|
47
口口口口 |①---|
口③口口 |②---|
口②口口 |③---|
口①口口 |----|
48
口口口① |①---|
口口口② |②---|
口口口③ |③---|
口口口④ |④---|
49
口口①口 |①---|
口口②口 |②---|
口口③口 |③---|
口口口口 |----|
50
④口口口 |①---|
③口口口 |②---|
②口口口 |③---|
①口口口 |④---|
51
口①口口 |①---|
口②口口 |②---|
口③口口 |③---|
口口口口 |----|
52
口口口① |①---|
口口口② |②---|
口口口③ |③---|
口口口④ |④---|
53
口口口口 |①---|
口口③口 |②---|
口口②口 |③---|
口口①口 |----|
54
①口口① |①---|
②口口② |②---|
③口口③ |③---|
④口口④ |④---|
55
口口口口 |①---|
口③③口 |②---|
口②②口 |③---|
口①①口 |----|
56
④口口④ |①---|
③口口③ |②---|
②口口② |③---|
①口口① |④---|
57
口①①口 |①---|
口②②口 |②---|
口③③口 |③---|
口④④口 |④---|
58
①②③口 |①---|
口口口口 |②---|
口口口口 |③---|
口口口口 |----|
59
口口③口 |①---|
①②口④ |②---|
口口口口 |③---|
口口口口 |④---|
60
口口口口 |①---|
口口口口 |②---|
口③②① |③---|
口口口口 |----|
61
口口口口 |①---|
口口口口 |②---|
口③口口 |③---|
④口②① |④---|
62
①②③口 |①---|
口口口口 |②---|
口口口口 |③---|
口口口口 |----|
63
口口③口 |①---|
①②口④ |②---|
口口口口 |③---|
口口口口 |④---|
64
口口口口 |①---|
口口口口 |②---|
口③②① |③---|
口口口口 |----|
65
口口口口 |①---|
口口口口 |②---|
口③口口 |③---|
④口②① |④---|
66
①②③口 |①---|
口口口口 |②---|
口口口口 |③---|
口口口口 |----|
67
口口③口 |①---|
①②口④ |②---|
口口口口 |③---|
口口口口 |④---|
68
口口口口 |①---|
口口口口 |②---|
口③②① |③---|
口口口口 |----|
69
口口口口 |①---|
口口口口 |②---|
口③口口 |③---|
④口②① |④---|
70
①②③口 |①---|
口口口口 |②---|
口口口口 |③---|
口口口口 |----|
71
口口③口 |①---|
①②口④ |②---|
口口口口 |③---|
口口口口 |④---|
72
口口口口 |①---|
口口口口 |②---|
口③②① |③---|
口口口口 |----|
73
口口口口 |①---|
口口口口 |②---|
口③口口 |③---|
④口②① |④---|
74
口①①口 |①---|
口①①口 |----|
口口口口 |----|
口口口口 |----|


不确定度: 0

最終更新:2012年12月03日 19:27