キスしてほしい

ADVANCED

Level: 5
BPM: 194
Notes: 314

1
口口口口 |----|
口口口口 |----|
口口口口 |----|
口口口口 |----|
2
口口口口 |①---|
口口口口 |----|
口口口口 |----|
①①口口 |----|
3
口口口口 |----|
①①口口 |----|
②②口口 |①---|
口口口口 |②---|
4
口口口口 |①---|
口口口口 |----|
口口口口 |----|
口口①① |----|
5
口口口口 |----|
口口①① |----|
口口②② |①---|
口口口口 |②---|
6
口口口口 |①---|
口口口口 |----|
口口口口 |----|
口①①口 |----|
7
口口口口 |----|
口①①口 |----|
口②②口 |①---|
口口口口 |②---|
8
口口口口 |①---|
口口口口 |----|
口口口口 |----|
①口口① |----|
9
①口口① |①---|
口口口口 |----|
口口口口 |----|
口口口口 |----|
10
①②③口 |①---|
口口口口 |②---|
口口口口 |③---|
口口口口 |----|
11
口口口口 |①---|
口口口口 |②---|
④③②① |③-④-|
⑥⑤口口 |⑤-⑥-|
12
口③②① |①---|
口口口口 |②---|
口口口口 |③---|
口口口口 |----|
13
口口口口 |①---|
口口口口 |②---|
①②③④ |③-④-|
口口⑤⑥ |⑤-⑥-|
14
口口口口 |①---|
①②③口 |②---|
口口口口 |③---|
口口口口 |----|
15
口口口口 |①---|
口口口口 |②---|
⑥⑤口口 |③-④-|
④③②① |⑤-⑥-|
16
口口口口 |①---|
口③②① |②---|
口口口口 |③---|
口口口口 |----|
17
口口口口 |①---|
口口口口 |②---|
口口⑤⑥ |③-④-|
①②③④ |⑤-⑥-|
18
①口口口 |①---|
②口口口 |②---|
③口口口 |③---|
口口口口 |----|
19
口口④⑥ |①---|
口口③⑤ |②---|
口口②口 |③-④-|
口口①口 |⑤-⑥-|
20
口口口口 |①---|
③口口口 |②---|
②口口口 |③---|
①口口口 |----|
21
口口①口 |①---|
口口②口 |②---|
口口③⑤ |③-④-|
口口④⑥ |⑤-⑥-|
22
口①口口 |①---|
口②口口 |②---|
口③口口 |③---|
口口口口 |----|
23
口口⑥④ |①---|
口口⑤③ |②---|
口口口② |③-④-|
口口口① |⑤-⑥-|
24
口口口口 |①---|
口③口口 |②---|
口②口口 |③---|
口①口口 |----|
25
口口口① |①---|
口口口② |②---|
口口⑤③ |③-④-|
口口⑥④ |⑤-⑥-|
26
④口口口 |①---|
③口口口 |②---|
②口口口 |③---|
①口口口 |④---|
27
口①②③ |①---|
口口口口 |②-③-|
口口口口 |----|
口口口口 |----|
28
口口口④ |①---|
口口口③ |②---|
口口口② |③---|
口口口① |④---|
29
③②①口 |①---|
口口口口 |②-③-|
口口口口 |----|
口口口口 |----|
30
口口口① |①---|
口口口② |②---|
口口口③ |③---|
口口口④ |④---|
31
口口口口 |①---|
口口口口 |②-③-|
口口口口 |----|
③②①口 |----|
32
①口口口 |①---|
②口口口 |②---|
③口口口 |③---|
④口口口 |④---|
33
口口口口 |①-②-|
口口口口 |--③-|
口口口口 |----|
口①②③ |----|
34
①口口① |①---|
口①①口 |----|
②口口② |②---|
口②②口 |----|
35
口口口口 |①---|
①口口① |----|
②口口② |②---|
口口口口 |----|
36
口②②口 |①---|
②口口② |----|
口①①口 |②---|
①口口① |----|
37
口口口口 |①---|
②口口② |----|
①口口① |②---|
口口口口 |----|
38
口①①口 |①---|
口②②口 |②---|
口③③口 |③---|
口④④口 |④---|
39
口口口口 |①---|
③口口③ |②-③-|
②口口② |----|
①口口① |----|
40
口④④口 |①---|
口③③口 |②---|
口②②口 |③---|
口①①口 |④---|
41
③口口③ |①---|
②口口② |②-③-|
①口口① |----|
口口口口 |----|
42
口口口口 |①---|
口①②口 |②---|
口③④口 |③---|
口口口口 |④---|
43
口口口口 |①---|
口口口① |②-③-|
口口口② |----|
口口③口 |----|
44
口口口口 |①---|
口①②口 |②---|
口③④口 |③---|
口口口口 |④---|
45
口③口口 |①---|
②口口口 |②-③-|
①口口口 |----|
口口口口 |----|
46
口口口口 |①---|
口①②口 |②---|
口③④口 |③---|
口口口口 |④---|
47
口①②口 |①---|
口口口③ |②-③-|
口口口口 |----|
口口口口 |----|
48
口口口口 |①---|
口①②口 |②---|
口③④口 |③---|
口口口口 |④---|
49
口口口口 |①---|
口口口口 |②-③-|
③口口口 |----|
口②①口 |----|
50
口口口① |①---|
口口口② |②---|
口口口③ |③---|
口口口④ |④---|
51
口口口口 |①---|
口口③口 |②-③-|
口口②口 |----|
口口①口 |----|
52
④口口口 |①---|
③口口口 |②---|
②口口口 |③---|
①口口口 |④---|
53
口①口口 |①---|
口②口口 |②-③-|
口③口口 |----|
口口口口 |----|
54
①口口④ |①---|
②口口③ |②---|
③口口② |③---|
④口口① |④---|
55
口口①口 |①---|
口③②口 |②-③-|
口②③口 |----|
口①口口 |----|
56
①口②口 |①---|
口③口④ |②---|
口口口口 |③---|
口口口口 |④---|
57
口口口口 |①---|
口口口口 |②---|
②口①口 |③---|
口④口③ |④---|
58
①②③口 |①---|
口口口口 |②---|
口口口口 |③---|
口口口口 |----|
59
口口口口 |①---|
口口口口 |②---|
④③②① |③-④-|
⑥⑤口口 |⑤-⑥-|
60
口③②① |①---|
口口口口 |②---|
口口口口 |③---|
口口口口 |----|
61
口口口口 |①---|
口口口口 |②---|
①②③④ |③-④-|
口口⑤⑥ |⑤-⑥-|
62
①口口口 |①---|
②口口口 |②---|
③口口口 |③---|
口口口口 |----|
63
口口④⑥ |①---|
口口③⑤ |②---|
口口②口 |③-④-|
口口①口 |⑤-⑥-|
64
口口口口 |①---|
③口口口 |②---|
②口口口 |③---|
①口口口 |----|
65
口口①口 |①---|
口口②口 |②---|
口口③⑤ |③-④-|
口口④⑥ |⑤-⑥-|
66
口口口口 |①---|
①②③口 |②---|
口口口口 |③---|
口口口口 |----|
67
口口口口 |①---|
口口口口 |②---|
⑥⑤口口 |③-④-|
④③②① |⑤-⑥-|
68
口口口口 |①---|
口③②① |②---|
口口口口 |③---|
口口口口 |----|
69
口口口口 |①---|
口口口口 |②---|
口口⑤⑥ |③-④-|
①②③④ |⑤-⑥-|
70
口①口口 |①---|
口②口口 |②---|
口③口口 |③---|
口口口口 |----|
71
口口⑥④ |①---|
口口⑤③ |②---|
口口口② |③-④-|
口口口① |⑤-⑥-|
72
口口口口 |①---|
口③口口 |②---|
口②口口 |③---|
口①口口 |----|
73
口口口① |①---|
口口口② |②---|
口口⑤③ |③-④-|
口口⑥④ |⑤-⑥-|
74
口①①口 |①---|
口①①口 |----|
口口口口 |----|
口口口口 |----|


不确定度: 0

最終更新:2012年12月03日 19:26