キスしてほしい

EXTREME

Level: 7
BPM: 194
Notes: 445

1
口口口口 |----|
口口口口 |----|
口口口口 |----|
口口口口 |----|
2
口口口口 |①---|
①①口口 |----|
①①口口 |----|
口口口口 |----|
3
①①口口 |----|
口口口口 |----|
口口口口 |①---|
②②口口 |②---|
4
口口口口 |①---|
口口①① |----|
口口①① |----|
口口口口 |----|
5
口口①① |----|
口口口口 |----|
口口口口 |①---|
口口②② |②---|
6
口口口口 |①---|
口①①口 |----|
口①①口 |----|
口口口口 |----|
7
口①①口 |----|
口口口口 |----|
口口口口 |①---|
口②②口 |②---|
8
口口口口 |①---|
口口口口 |----|
口口口口 |----|
口口口① |----|
9
①口②口 |①---|
口口③口 |--②-|
口④口口 |③-④-|
口⑤口⑥ |⑤-⑥-|
10
①②③口 |①---|
①②③口 |②---|
口口口口 |③---|
口口口口 |----|
11
口口口口 |①---|
口口口口 |②---|
⑥④②① |③-④-|
⑤③②① |⑤-⑥-|
12
口③②① |①---|
口③②① |②---|
口口口口 |③---|
口口口口 |----|
13
口口口口 |①---|
口口口口 |②---|
①②③⑤ |③-④-|
①②④⑥ |⑤-⑥-|
14
①①口口 |①---|
②②口口 |②---|
③③口口 |③---|
口口口口 |----|
15
口口⑤⑥ |①---|
口口③④ |②---|
口口②② |③-④-|
口口①① |⑤-⑥-|
16
口口口口 |①---|
③③口口 |②---|
②②口口 |③---|
①①口口 |----|
17
口口①① |①---|
口口②② |②---|
口口④③ |③-④-|
口口⑥⑤ |⑤-⑥-|
18
①②③口 |①---|
①②③口 |②---|
口口口口 |③---|
口口口口 |----|
19
口口口口 |①---|
口口口口 |②---|
⑥④②① |③-④-|
⑤③②① |⑤-⑥-|
20
口③②① |①---|
口③②① |②---|
口口口口 |③---|
口口口口 |----|
21
口口口口 |①---|
口口口口 |②---|
①②③⑤ |③-④-|
①②④⑥ |⑤-⑥-|
22
①①口口 |①---|
②②口口 |②---|
③③口口 |③---|
口口口口 |----|
23
口口⑤⑥ |①---|
口口③④ |②---|
口口②② |③-④-|
口口①① |⑤-⑥-|
24
口口口口 |①---|
③③口口 |②---|
②②口口 |③---|
①①口口 |----|
25
口口①① |①---|
口口②② |②---|
口口④③ |③-④-|
口口⑥⑤ |⑤-⑥-|
26
④口口口 |①---|
③口口口 |②---|
②口口口 |③---|
①口口口 |④---|
27
口①②③ |①---|
口口口口 |②-③-|
口口口口 |----|
口口口口 |----|
28
口口口④ |①---|
口口口③ |②---|
口口口② |③---|
口口口① |④---|
29
③②①口 |①---|
口口口口 |②-③-|
口口口口 |----|
口口口口 |----|
30
口口口① |①---|
口口口② |②---|
口口口③ |③---|
口口口④ |④---|
31
口口口口 |①---|
口口口口 |②-③-|
口口口口 |----|
③②①口 |----|
32
①口口口 |①---|
②口口口 |②---|
③口口口 |③---|
④口口口 |④---|
33
口口口口 |①-②-|
口口口口 |--③-|
口口口口 |----|
口①②③ |----|
34
②口口② |①---|
口①①口 |②---|
口③③口 |③---|
④口口④ |④---|
35
口③口口 |①---|
②口口① |②-③-|
①口口② |----|
口口③口 |----|
36
④口口④ |①---|
口③③口 |②---|
口①①口 |③---|
②口口② |④---|
37
口口③口 |①---|
①口口② |②-③-|
②口口① |----|
口③口口 |----|
38
④口口④ |①---|
③口口③ |②---|
②口口② |③---|
①口口① |④---|
39
口①①口 |①---|
口②③口 |②-③-|
口口口口 |----|
口口口口 |----|
40
口④④口 |①---|
口③③口 |②---|
口②②口 |③---|
口①①口 |④---|
41
①口口① |①---|
②口口② |②-③-|
③口口③ |----|
口口口口 |----|
42
①口口① |①---|
口②②口 |②---|
口④④口 |③---|
③口口③ |④---|
43
口口口口 |①---|
①口口① |②-③-|
②口口② |----|
口③③口 |----|
44
③口口③ |①---|
口④④口 |②---|
口②②口 |③---|
①口口① |④---|
45
口③③口 |①---|
②口口② |②-③-|
①口口① |----|
口口口口 |----|
46
①口口③ |①---|
口②④口 |②---|
口②④口 |③---|
①口口③ |④---|
47
口①②口 |①---|
口口口③ |②-③-|
口口口③ |----|
口①②口 |----|
48
③口口① |①---|
口④②口 |②---|
口④②口 |③---|
③口口① |④---|
49
口②①口 |①---|
③口口口 |②-③-|
③口口口 |----|
口②①口 |----|
50
口口口① |①---|
口口口② |②---|
口口口③ |③---|
口口口④ |④---|
51
口口口口 |①---|
口口③口 |②-③-|
口口②口 |----|
口口①口 |----|
52
④口口口 |①---|
③口口口 |②---|
②口口口 |③---|
①口口口 |④---|
53
口①口口 |①---|
口②口口 |②-③-|
口③口口 |----|
口口口口 |----|
54
①口口④ |①---|
②口口③ |②---|
③口口② |③---|
④口口① |④---|
55
口口①口 |①---|
口③②口 |②-③-|
口②③口 |----|
口①口口 |----|
56
①①③③ |①---|
④④②② |②---|
口口口口 |③---|
口口口口 |④---|
57
口口口口 |①-②-|
口口口口 |③-④-|
④③②① |⑤-⑥-|
⑧⑦⑥⑤ |⑦-⑧-|
58
①②③口 |①---|
①②③口 |②---|
口口口口 |③---|
口口口口 |----|
59
口口口口 |①---|
口口口口 |②---|
⑥④②① |③-④-|
⑤③②① |⑤-⑥-|
60
口③②① |①---|
口③②① |②---|
口口口口 |③---|
口口口口 |----|
61
口口口口 |①---|
口口口口 |②---|
①②③⑤ |③-④-|
①②④⑥ |⑤-⑥-|
62
①①口口 |①---|
②②口口 |②---|
③③口口 |③---|
口口口口 |----|
63
口口⑤⑥ |①---|
口口③④ |②---|
口口②② |③-④-|
口口①① |⑤-⑥-|
64
口口口口 |①---|
③③口口 |②---|
②②口口 |③---|
①①口口 |----|
65
口口①① |①---|
口口②② |②---|
口口④③ |③-④-|
口口⑥⑤ |⑤-⑥-|
66
①②③口 |①---|
①②③口 |②---|
口口口口 |③---|
口口口口 |----|
67
口口口口 |①---|
口口口口 |②---|
⑥④②① |③-④-|
⑤③②① |⑤-⑥-|
68
口③②① |①---|
口③②① |②---|
口口口口 |③---|
口口口口 |----|
69
口口口口 |①---|
口口口口 |②---|
①②③⑤ |③-④-|
①②④⑥ |⑤-⑥-|
70
①①口口 |①---|
②②口口 |②---|
③③口口 |③---|
口口口口 |----|
71
口口⑤⑥ |①---|
口口③④ |②---|
口口②② |③-④-|
口口①① |⑤-⑥-|
72
口口口口 |①---|
③③口口 |②---|
②②口口 |③---|
①①口口 |----|
73
口口①① |①---|
口口②② |②---|
口口④③ |③-④-|
口口⑥⑤ |⑤-⑥-|
74
①①口口 |①---|
①①口口 |----|
①①口口 |----|
①①口口 |----|


不确定度: 0

最終更新:2012年12月03日 19:26