一色

BASIC

Level: 2
BPM: 108
Notes: 156

1
口口口口 |----|
口口口口 |----|
口口口口 |----|
口口口口 |----|
2
口口口① |①---|
②口口② |----|
口口口口 |②---|
口口口口 |----|
3
口口口口 |①---|
口口口口 |----|
②口口② |②---|
口口口① |----|
4
①口口② |①---|
口口口口 |----|
口口口口 |②---|
口口口口 |----|
5
口口口口 |①---|
口①①口 |----|
口口口口 |----|
口口口口 |----|
6
①口口口 |①---|
②口口② |----|
口口口口 |②---|
口口口口 |----|
7
口口口口 |①---|
口口口口 |----|
②口口② |②---|
①口口口 |----|
8
口口口口 |①---|
口口口口 |----|
口口口口 |②---|
①口口② |----|
9
口口口口 |①---|
口口口口 |----|
口①①口 |----|
口口口口 |----|
10
①口口① |①---|
口②②口 |----|
口口口口 |②---|
口口口口 |----|
11
口口口口 |①---|
口口口口 |----|
口①①口 |②---|
②口口② |----|
12
口口①口 |①---|
口②口口 |②---|
口口③口 |③---|
口④口口 |④---|
13
口口口口 |①---|
口①①口 |----|
口口口口 |----|
口口口口 |----|
14
口口口口 |----|
口口口口 |----|
口口口口 |----|
口口口口 |----|
15
①口口口 |①---|
②口口② |----|
口口口口 |②---|
口口口口 |----|
16
口口口口 |①---|
口口口口 |----|
①口口① |②---|
口口口② |----|
17
口口口口 |①---|
口口口口 |----|
②口口② |②---|
①口口口 |----|
18
口口口② |①---|
①口口① |----|
口口口口 |②---|
口口口口 |----|
19
①口口口 |①---|
②口口② |----|
口口口口 |②---|
口口口口 |----|
20
口口口口 |①---|
口口口口 |----|
①口口① |②---|
口口口② |----|
21
口口口① |①---|
②口口② |----|
口口口口 |②---|
口口口口 |----|
22
口口口口 |①---|
口口口口 |----|
①口口① |②---|
②口口口 |----|
23
口①①口 |①---|
②口口② |----|
口口口口 |②---|
口口口口 |----|
24
口口口口 |①---|
口口口口 |----|
②口口② |②---|
口①①口 |----|
25
口口①口 |①---|
口②口口 |②---|
口口③口 |③---|
口④口口 |④---|
26
口口口口 |①---|
口①①口 |----|
口口口口 |----|
口口口口 |----|
27
口①①口 |①---|
②口口② |----|
口口口口 |②---|
口口口口 |----|
28
口口口口 |①---|
口口口口 |----|
②口口② |②---|
口①①口 |----|
29
口①口口 |①---|
口口②口 |②---|
口③口口 |③---|
口口④口 |④---|
30
口口口口 |①---|
口①①口 |----|
口口口口 |----|
口口口口 |----|
31
口口口口 |----|
口口口口 |----|
口口口口 |----|
口口口口 |----|
32
口口口① |①---|
口口②口 |②---|
口口口③ |③---|
口口④口 |④---|
33
口口口口 |①---|
②口口② |----|
口①①口 |②---|
口口口口 |----|
34
①口口口 |①---|
口②口口 |②---|
③口口口 |③---|
口④口口 |④---|
35
口口口口 |①---|
②口口② |----|
口①①口 |②---|
口口口口 |----|
36
口口口① |①---|
口口②口 |②---|
口口口③ |③---|
口口④口 |④---|
37
口口口口 |①---|
②口口② |----|
口①①口 |②---|
口口口口 |----|
38
①口口口 |①---|
口②口口 |②---|
③口口口 |③---|
口④口口 |-④--|
39
口口口口 |①---|
②口口② |----|
口①①口 |②---|
口口口口 |----|
40
口①①口 |①---|
口②②口 |----|
口口口口 |②---|
口口口口 |----|
41
口口口口 |①---|
口口口口 |----|
口①①③ |②---|
口口口② |③---|
42
③口口② |①---|
④口口① |②---|
口口口口 |③---|
口口口口 |④---|
43
口口口口 |①---|
口口口口 |②---|
①口口口 |----|
②口口口 |----|
44
口口口口 |①---|
口口口口 |----|
口②②口 |②---|
口①①口 |----|
45
②口口口 |①---|
③①①口 |----|
口口口口 |②---|
口口口口 |③---|
46
口口口口 |①---|
口口口口 |②---|
①口口④ |③---|
②口口③ |④---|
47
口口口② |①---|
口口口① |②---|
口口口口 |----|
口口口口 |----|
48
口口①口 |①---|
口②口口 |②---|
口口③口 |③---|
口④口口 |④---|
49
口口口口 |①---|
口①①口 |----|
口②②口 |②---|
口口口口 |----|
50
①口口① |①---|
口口口口 |----|
口口口口 |----|
口口口口 |----|


不确定度: 0

最終更新:2012年12月03日 19:26