一色

ADVANCED

Level: 4
BPM: 108
Notes: 316

1
口口口口 |----|
口口口口 |----|
口口口口 |----|
口口口口 |----|
2
①口口口 |①---|
②口口② |②---|
④口口④ |③---|
口口口③ |④---|
3
①口口口 |①-②-|
口②口口 |③-④-|
口口③口 |----|
口口口④ |----|
4
口口口① |①---|
②口口② |②---|
④口口④ |③---|
③口口口 |④---|
5
口口口① |①-②-|
口口②口 |③-④-|
口③口口 |----|
④口口口 |----|
6
①口口口 |①---|
②口口② |②---|
④口口④ |③---|
口口口③ |④---|
7
①口口口 |①-②-|
口②口口 |③-④-|
口口③口 |----|
口口口④ |----|
8
口口口① |①---|
②口口② |②---|
④口口④ |③---|
口口口③ |④---|
9
口口口① |①-②-|
口口②口 |③-④-|
口③口口 |----|
④口口口 |----|
10
①口口④ |①---|
①口口④ |②---|
口②③口 |③---|
口口口口 |④---|
11
口口口口 |①---|
口②③口 |②---|
①口口④ |③---|
①口口④ |④---|
12
①口②口 |①-②-|
口④口③ |③-④-|
⑤口⑥口 |⑤-⑥-|
口⑧口⑦ |⑦-⑧-|
13
①②②① |①---|
口①①口 |----|
口口口口 |②---|
口口口口 |----|
14
口口口口 |①---|
口口口口 |----|
①口口① |----|
口①①口 |----|
15
①口口⑦ |①-②-|
口②口⑥ |③-④-|
口口③⑤ |⑤-⑥-|
口口口④ |⑦---|
16
口①①口 |①---|
③②②③ |----|
口口口口 |②---|
口口口口 |③---|
17
⑦口口① |①-②-|
⑥口②口 |③-④-|
⑤③口口 |⑤-⑥-|
④口口口 |⑦---|
18
口①①口 |①---|
口②②口 |②---|
④③③④ |③---|
口口口口 |④---|
19
①口口⑦ |①-②-|
口②口⑥ |③-④-|
口口③⑤ |⑤-⑥-|
口口口④ |⑦---|
20
口①①口 |①---|
③②②③ |----|
口口口口 |②---|
口口口口 |③---|
21
⑦口口① |①-②-|
⑥口②口 |③-④-|
⑤③口口 |⑤-⑥-|
④口口口 |⑦---|
22
口①①口 |①---|
口②②口 |②---|
④③③④ |③---|
口口口口 |④---|
23
①口②口 |①-②-|
口④口③ |③-④-|
⑤口⑥口 |⑤-⑥-|
口⑧口⑦ |⑦-⑧-|
24
①口口口 |①-②-|
口②口口 |③-④-|
口口③口 |----|
口口口④ |----|
25
口②口① |①-②-|
③口④口 |③-④-|
口⑥口⑤ |⑤-⑥-|
⑦口⑧口 |⑦-⑧-|
26
口口口① |①-②-|
口口②口 |③-④-|
口③口口 |----|
④口口口 |----|
27
口⑧口⑦ |①-②-|
⑤口⑥口 |③-④-|
口④口③ |⑤-⑥-|
①口②口 |⑦-⑧-|
28
口⑤⑤④ |①-②-|
口口③口 |③-④-|
口②口口 |----|
①口口口 |⑤---|
29
⑦口⑧口 |①-②-|
口⑥口⑤ |③-④-|
③口④口 |⑤-⑥-|
口②口① |⑦-⑧-|
30
口口口口 |①---|
口口口口 |②---|
①②②① |③---|
③④④③ |④---|
31
①口口① |①---|
口②②口 |②---|
③口口③ |③---|
口④④口 |④---|
32
①口口② |①---|
口①②口 |②---|
口④③口 |③---|
④口口③ |④---|
33
①口口口 |①-②-|
口②口口 |③-④-|
口口③口 |----|
口⑤⑤④ |⑤---|
34
②口口① |①---|
口②①口 |②---|
口③④口 |③---|
③口口④ |④---|
35
口口口① |①-②-|
口口②口 |③-④-|
口③口口 |----|
④⑤⑤口 |⑤---|
36
④口口③ |①---|
口④③口 |②---|
口①②口 |③---|
①口口② |④---|
37
口口口④ |①-②-|
口口③口 |③----④--|
口②口口 |----|
①口口口 |----|
38
③口口④ |①---|
口③④口 |②---|
口②①口 |③---|
②口口① |④---|
39
④⑤⑤口 |①-②-|
口③口口 |③-④-|
口口②口 |----|
口口口① |⑤---|
40
口④④口 |①---|
③口口③ |②---|
口②②口 |③---|
①口口① |④---|
41
①口口① |①---|
口②②口 |②---|
③口口③ |③---|
口④④口 |④---|
42
①口口⑤ |①-②-|
口②⑥口 |③-④-|
口口③口 |----|
口口口④ |⑤-⑥-|
43
口口口口 |①-②-|
④③③④ |----|
口①口口 |③---|
②口口口 |④---|
44
口口口口 |①---|
④口口④ |②---|
②③③② |③---|
口①①口 |④---|
45
②③③② |①---|
口①①口 |②---|
口口⑤口 |③---|
口口口④ |④-⑤-|
46
②口口⑥ |①-②-|
口①⑤口 |----|
口④口口 |③-④-|
③口口口 |⑤-⑥-|
47
口①①口 |----|
口②②口 |--①-|
口口口口 |----|
口口口口 |②---|
48
①口②口 |①-②-|
口④口③ |③-④-|
⑤口⑥口 |⑤-⑥-|
口⑧口⑦ |⑦-⑧-|
49
③口口③ |①---|
④①①④ |②---|
⑤②②⑤ |③-④-|
⑥口口⑥ |⑤-⑥-|


不确定度: 0

最終更新:2012年12月03日 19:26