一色

EXTREME

Level: 7
BPM: 108
Notes: 459

1
口口口口 |----|
口口口口 |----|
口口口口 |----|
口口口口 |----|
2
①口口⑤ |①-②-|
口②⑥口 |③-④-|
口③⑦口 |⑤-⑥-|
④口口⑧ |⑦-⑧-|
3
口口口口 |①-②-|
①口口④ |③-④-|
②口口③ |----|
口口口口 |----|
4
⑧口口④ |①-②-|
口⑦③口 |③-④-|
口⑥②口 |⑤-⑥-|
⑤口口① |⑦-⑧-|
5
口口口口 |①-②-|
③口口② |③-④-|
④口口① |----|
口口口口 |----|
6
①口口④ |①-②-|
口②③口 |③-④-|
口⑥⑦口 |⑤-⑥-|
⑤口口⑧ |⑦-⑧-|
7
口①②口 |①-②-|
口口口口 |③-④-|
口口口口 |----|
口④③口 |----|
8
⑧口口⑤ |①-②-|
口⑦⑥口 |③-④-|
口③②口 |⑤-⑥-|
④口口① |⑦-⑧-|
9
口③④口 |①-②-|
口口口口 |③-④-|
口口口口 |----|
口②①口 |----|
10
口口口口 |①-②-|
口③②① |③---|
①②③口
口口口口

口④④口
⑤口⑥口
口⑥口⑤ |④---|
口④④口 |⑤-⑥-|
11
口②②口 |①---|
口口口① |②---|
①口口口
口②②口

口口口口
③③④④
④④③③ |③---|
口口口口 |④---|
12
口③①口 |①-②-|
口②口口 |③---|
口口②口
口①③口

④口口口
⑥⑤口口
口口⑤⑥ |④---|
口口口④ |⑤-⑥-|
13
口①口口 |①---|
口口②口 |②---|
口②口口
口口①口

口④④口
③口口③
③口口③ |③---|
口④④口 |④---|
14
口口口② |①---|
口口①口 |②---|
口③口口 |③---|
④口口口 |④---|
15
①口口口 |①-②-|
口口口口 |③-④-|
⑤④③② |⑤-⑥-|
⑥⑦⑧口 |⑦-⑧-|
16
口口口④ |①-②-|
口⑤⑤③ |③-④-|
口口⑥② |⑤-⑥-|
口⑦口① |⑦---|
17
口口口① |①-②-|
口口口口 |③-④-|
②③④口
口口口①

口口口口
口口口口
口口口⑤ |⑤-⑥-|
口⑧⑦⑥ |⑦-⑧-|
18
④口⑦口 |①-②-|
③⑥口口 |③-④-|
②⑤⑤口 |⑤-⑥-|
①口口口 |⑦---|
19
口②口口 |①-②-|
⑧③口口 |③-④-|
⑦④口口 |⑤-⑥-|
⑥⑤口① |⑦-⑧-|
20
①②③④ |①-②-|
口⑤⑥口 |③-④-|
口⑤口⑦ |⑤-⑥-|
口口口口 |⑦---|
21
口口口口 |--①-|
口口口口 |②-③-|
口⑦⑥⑤ |④-⑤-|
①②③④ |⑥-⑦-|
22
③⑥⑥③ |①-②-|
⑤②②⑤ |③---|
①④④口 |④-⑤-|
口口口口 |⑥---|
23
①口口① |①---|
口②②口 |②---|
③④④③ |③---|
口口口口 |④---|
24
①②②① |①-②-|
口③③口 |③-④-|
④口口④
口口口口

⑦⑧⑧⑦
⑥口口⑥
口⑤⑤口 |⑤-⑥-|
口口口口 |⑦-⑧-|
25
口口口口 |①---|
③④④③ |②---|
口②②口 |③---|
①口口① |④---|
26
口④④口 |①-②-|
口口口口 |③-④-|
②③③②
①口口①

⑤口口⑤
口⑥⑥口
⑦口口⑦ |⑤-⑥-|
口⑧⑧口 |⑦-⑧-|
27
口口口口 |①---|
①口口① |②---|
口口口口
②口口②

口口口口
④口④口
口③口③ |③---|
口口口口 |④---|
28
口①口① |①-②-|
口④④口 |③-④-|
口③③口
口②②口

口口口口
⑥口口⑥
⑦口口⑦ |⑤-⑥-|
⑤⑧⑧⑤ |⑦-⑧-|
29
①口口① |①---|
口④④口 |②---|
③口口③ |③---|
②口口② |④---|
30
①⑧⑨⑯ |①②③④|
②⑦⑩⑮ |⑤⑥⑦⑧|
③⑥⑪⑭ |⑨⑩⑪⑫|
④⑤⑫⑬ |⑬⑭⑮⑯|
31
口③③口 |----|
②①①② |①---|
②①①② |②---|
口③③口 |③---|
32
口④④口 |①-②-|
②③③② |③-④-|
口①①口
口口口口

⑤口口⑤
⑥口口⑥
口⑧⑧口 |⑤----⑥--|
口⑦⑦口 |⑦-⑧-|
33
口口口口 |①-②-|
口口口口 |--③-|
①口口①
②③③②

口口口口
⑦⑤⑤⑥
⑥④④⑦ |④-⑤-|
口口口口 |⑥-⑦-|
34
⑤①②⑨ |①-②-|
口⑥⑩口 |③-④-|
口⑪⑦口 |⑤⑥⑦⑧|
⑫④③⑧ |⑨⑩⑪⑫|
35
口①①口 |--①-|
④口③口 |②---|
口③口④ |③---|
口②②口 |④---|
36
①②②① |①-②-|
⑦③③⑦ |③-④-|
④⑤⑤④ |⑤-⑥-|
⑥⑧⑧⑥ |⑦-⑧-|
37
②③③② |①-②-|
⑥①①⑤ |③---|
⑤④④⑥ |④-⑤-|
口口口口 |⑥---|
38
⑤③④⑨ |①-②-|
口⑥⑩口 |③-④-|
口口⑦口 |⑤⑥⑦⑧|
口②①⑧ |⑨-⑩-|
39
口口口口 |①-②-|
③④口⑤ |③---|
⑤①④③ |④---|
②口口口 |⑤---|
40
口口口口 |①-②-|
①口②⑥ |--③-|
口④口③ |④-⑤-|
口⑤⑤口 |--⑥-|
41
口②②口 |①-②-|
①口口口 |--③-|
口口口口
口口口③

口口⑥口
口口口⑤
口口④口 |--④-|
口口口口 |⑤-⑥-|
42
②口口口 |①---|
口①①口 |--②-|
口口口口
口口口口

口口口口
口③口口
④口口口 |--③-|
口⑤口口 |④--⑤----|
43
口④③口 |①---|
②口口② |②---|
口①①口 |③---|
口③④口 |④---|
44
口口口口 |①-②-|
③口④口 |--③-|
⑥②口① |④-⑤-|
口⑤⑤口 |--⑥-|
45
口口口口 |①-②-|
口口口口 |----|
口②②①
口口口口

③口口口
口④口口
口口⑥口 |③-④-|
口口口⑤ |⑤-⑥-|
46
②口口⑤ |①---|
③口口④ |--②-|
④口口③ |③-④-|
⑤①①② |⑤---|
47
口口口口 |①---|
②①①口 |--②-|
口①①②
口口口口

口口口口
口口③口
口③口口 |----|
口口口口 |③---|
48
口口②① |--①②|
③④口口 |③-④-|
口口口口
口口口口

口口口口
⑨口口⑨
口口⑥⑤ |⑤⑥⑦⑧|
⑦⑧口口 |--⑨-|
49
口口口口 |①---|
口①①口 |②-③-|
口②②口
口③③口

口口口口
口口口口
⑤⑥⑥⑤ |--④-|
④口口④ |⑤-⑥-|
50
口口口口 |①---|
①口口① |----|
口口口口 |----|
口口口口 |----|


不确定度: 0

最終更新:2012年12月03日 19:25