光のロック

BASIC

Level: 2
BPM: 185
Notes: 167

1
口口口口 |----|
口口口口 |----|
口口口口 |----|
口口口口 |----|
2
口口口口 |①---|
口①口口 |----|
口②口口 |----|
口口口口 |--②-|
3
口口口口 |----|
口口口口 |----|
口口口口 |----|
口口口口 |----|
4
口口口口 |①---|
口口口口 |----|
口口①口 |----|
口口②口 |--②-|
5
口口口口 |----|
口口口口 |----|
口口口口 |----|
口口口口 |----|
6
口口①口 |①---|
口口②口 |----|
口口口口 |----|
口口口口 |--②-|
7
口口口口 |----|
口口口口 |----|
口口口口 |----|
口口口口 |----|
8
口口口口 |①---|
口①口口 |----|
口②口口 |----|
口口口口 |--②-|
9
口口口口 |----|
口口口口 |----|
口口口口 |----|
口口口口 |----|
10
口口口口 |①---|
口口口口 |----|
②口口口 |----|
①口口口 |--②-|
11
口口口口 |----|
口②口口 |----|
口①口口 |①---|
口口口口 |②---|
12
口口①口 |①---|
口口②口 |----|
口口口口 |----|
口口口口 |--②-|
13
口口口口 |----|
口口口① |----|
口口口② |①---|
口口口口 |②---|
14
口口口口 |①---|
口口口口 |----|
口口②口 |----|
口口①口 |--②-|
15
口口口口 |----|
口②口口 |----|
口①口口 |①---|
口口口口 |②---|
16
①口口口 |①---|
②口口口 |----|
口口口口 |----|
口口口口 |--②-|
17
口口口口 |----|
口①口口 |----|
口②口口 |①---|
口口口口 |②---|
18
口口口口 |①---|
口口①② |----|
口口口口 |②---|
口口口口 |----|
19
口口口口 |①---|
口口口口 |----|
口口①② |②---|
口口③口 |③---|
20
口口口口 |①---|
口口口口 |----|
口口口口 |----|
口口口① |----|
21
口口口口 |----|
口口口口 |----|
口口口口 |----|
口口口口 |----|
22
口口口口 |①---|
口口口口 |----|
①②口口 |②---|
口口口口 |----|
23
③口口口 |①---|
①②口口 |②---|
口口口口 |③---|
口口口口 |----|
24
口①①口 |①---|
口口口口 |----|
口口口口 |----|
口口口口 |----|
25
口口口① |①---|
口口口② |----|
口口口口 |②---|
口口口口 |----|
26
口口口口 |①---|
口口口口 |----|
口口口② |②---|
口口①口 |----|
27
口口口口 |①---|
口口③② |----|
口口①口 |②---|
口口口口 |③---|
28
口口口① |①---|
口口口口 |----|
口口口口 |----|
口口口口 |----|
29
口口口口 |----|
口口口口 |----|
口口口口 |----|
口口口口 |----|
30
口口口口 |①---|
口①口口 |----|
②口口口 |②---|
口口口口 |----|
31
口口口口 |①---|
口口口口 |②---|
口①口口 |③---|
②③口口 |----|
32
口口口口 |①---|
口口口口 |----|
口①①口 |----|
口口口口 |----|
33
口口口口 |----|
口口口口 |----|
口口口口 |----|
口口口口 |----|
34
口口口口 |①---|
①②口口 |----|
口口口口 |②---|
口口口口 |----|
35
口口口口 |①---|
口口口口 |----|
口①②口 |②---|
口口口口 |----|
36
口口口口 |①---|
口口口口 |----|
口口口口 |②---|
②①①② |----|
37
口口口口 |----|
口口口口 |----|
口口口口 |----|
口口口口 |----|
38
口口口口 |①---|
口口口口 |----|
口口②① |②---|
口口口口 |----|
39
口口口口 |①---|
口②①口 |----|
口口口口 |②---|
口口口口 |----|
40
②①①② |①---|
口口口口 |----|
口口口口 |②---|
口口口口 |----|
41
口口口口 |----|
口口口口 |----|
口口口口 |----|
口口口口 |----|
42
口口口口 |①---|
口口②① |----|
口口口口 |②---|
口口口口 |----|
43
口口口口 |①---|
口口口口 |----|
口②①口 |②---|
口口口口 |----|
44
口口口口 |①---|
口口口口 |----|
口口口口 |②---|
②①①② |----|
45
口口口口 |----|
口口口口 |----|
口口口口 |①---|
口①口口 |----|
46
口口口口 |①---|
口②口口 |----|
口①口口 |②---|
口口口口 |----|
47
口口口口 |----|
口口口口 |----|
口口①口 |①---|
口口口口 |----|
48
口口②口 |①---|
口口①口 |----|
口口口口 |②---|
口口口口 |----|
49
①口口① |①---|
口②②口 |----|
口口口口 |②---|
口口口口 |----|
50
口口口口 |①---|
口口口口 |----|
口①②口 |②---|
口口口口 |----|
51
口口口口 |①---|
口口口口 |②---|
③口口③ |③---|
②①①② |----|
52
口口口口 |①---|
口②①口 |----|
口口口口 |②---|
口口口口 |----|
53
②①①② |①---|
③口口③ |②---|
口口口口 |③---|
口口口口 |----|
54
口口口口 |①---|
口①①口 |----|
口口口口 |----|
口口口口 |----|
55
口口口口 |①---|
口口口口 |----|
口①①口 |----|
口口口口 |----|
56
口口口口 |①---|
口口口口 |----|
口口口口 |②---|
口①②口 |----|
57
口口口口 |①---|
口口口口 |----|
②口口② |②---|
①口口① |----|
58
口口口口 |①---|
口口口口 |----|
口①②口 |②---|
口口口口 |----|
59
口口口口 |①---|
口口口口 |②---|
③口口③ |③---|
②①①② |----|
60
口口口口 |①---|
口②①口 |----|
口口口口 |②---|
口口口口 |----|
61
②①①② |①---|
③口口③ |②---|
口口口口 |③---|
口口口口 |----|
62
口口口口 |①---|
口①①口 |----|
口口口口 |----|
口口口口 |----|
63
口口口口 |①---|
口口口口 |----|
口①①口 |----|
口口口口 |----|
64
口口口口 |①---|
口口口口 |----|
口口口口 |②---|
口①②口 |----|
65
口口口口 |①---|
口口口口 |----|
②口口② |②---|
①口口① |----|
66
口口口口 |①---|
①②口① |----|
口口口口 |----|
口口口口 |--②-|
67
口口口口 |----|
口口①口 |--①-|
口口口口 |----|
口口口口 |----|
68
口口口口 |①---|
口口口口 |----|
口①②口 |----|
口口口口 |--②-|
69
口口口口 |----|
口口③口 |①---|
口②口口 |②---|
口口①口 |③---|
70
口①②口 |①---|
口口口口 |--②-|
口口口口 |----|
口口口口 |----|
71
口口口口 |①---|
口①①口 |----|
口②②口 |②---|
口口口口 |----|
72
口口口口 |①---|
口口口口 |--②-|
③口口③ |----|
口②①口 |--③-|
73
口口口口 |----|
①口口① |----|
口口口口 |①---|
口口口口 |----|
74
口口口口 |①---|
②口口② |----|
口①①口 |②---|
口口口口 |----|
75
口①①口 |①---|
口①①口 |----|
口口口口 |----|
口口口口 |----|


不确定度: 0

最終更新:2012年12月03日 19:13