RePrise
SHOGO

BASIC

Level: 4
BPM: 182
Notes: 215

1
口口口口 |----|
口口口口 |----|
口口口口 |----|
口口口口 |----|
2
口口口口 |①---|
①②③④ |②---|
口口口口 |③---|
口口口口 |④---|
3
口口口口 |①---|
口③③口 |--②-|
①口口② |----|
口口口口 |--③-|
4
口口口口 |----|
口口口口 |----|
口①②口 |①---|
口口口口 |②---|
5
口③③口 |①---|
①口口② |--②-|
口口口口 |----|
口口口口 |--③-|
6
口口口口 |----|
口①②口 |----|
口口口口 |①---|
口口口口 |②---|
7
口口口口 |①---|
口③③口 |--②-|
①口口② |----|
口口口口 |--③-|
8
口口口口 |----|
口口口口 |----|
口①②口 |①---|
口口口口 |②---|
9
口③③口 |①---|
①口口② |--②-|
口口口口 |----|
口口口口 |--③-|
10
口口口口 |----|
口①②口 |----|
口口口口 |①---|
口口口口 |②---|
11
口口口口 |--①-|
口②口口 |----|
①口口口 |②---|
口口口口 |----|
12
口口口口 |--①-|
口口口① |----|
口口②口 |②---|
口口口口 |----|
13
口①口口 |----|
口口②口 |①---|
口③口口 |②---|
口口口口 |③---|
14
口口口口 |①---|
口口口口 |----|
口口口口 |----|
口口①口 |----|
15
口口口口 |----|
口口口口 |----|
口口口口 |----|
口口口口 |----|
16
口口口口 |--①-|
①②口口 |----|
口口口口 |②---|
口口口口 |----|
17
口口口口 |--①-|
口口口口 |----|
口口②① |②---|
口口口口 |----|
18
口口口口 |----|
口口③口 |①---|
①②口口 |②---|
口口口口 |③---|
19
口口口口 |①---|
口口口① |----|
口口口口 |----|
口口口口 |----|
20
口口口口 |----|
口口口口 |----|
口口口口 |----|
口口口口 |----|
21
口口口口 |--①-|
口口口口 |----|
口口口口 |②---|
①口口② |----|
22
①口口② |--①-|
口③③口 |----|
口③③口 |②---|
口口口口 |--③-|
23
口口口口 |----|
口口口口 |----|
口口口口 |----|
口口口口 |----|
24
口口口口 |----|
口口口口 |----|
口口口口 |----|
口口口口 |----|
25
口口口口 |----|
①②③口 |①---|
口口口口 |②---|
口口口口 |③---|
26
②口口① |--①-|
口口口③ |----|
口口口口 |②---|
口口口口 |--③-|
27
口口口口 |----|
①口口口 |①---|
口口口口 |----|
口口口口 |----|
28
口口口口 |----|
口①①口 |----|
口①①口 |①---|
口口口口 |----|
29
口口口口 |----|
口口口口 |----|
口口口口 |----|
口口口口 |----|
30
口口口口 |----|
口口口口 |----|
口口口口 |----|
口口口口 |----|
31
口口口口 |--①-|
口②②口 |----|
口①①口 |--②-|
口口口口 |----|
32
口口口口 |--①-|
①口口① |----|
②口口② |--②-|
口口口口 |----|
33
口口口口 |①---|
口①①口 |----|
口①①口 |----|
口口口口 |----|
34
口口口口 |①---|
①口口① |----|
①口口① |----|
口口口口 |----|
35
口口口口 |----|
①②③口 |①---|
口口口口 |②---|
口口口口 |③---|
36
口口口口 |①---|
口口口① |②---|
口口口② |③---|
口口④③ |④---|
37
口口口口 |①---|
口②②口 |----|
口①①口 |②---|
口口口口 |----|
38
口口口口 |----|
口口口口 |----|
口口口口 |----|
口口口口 |----|
39
口口口口 |--①-|
口①①口 |----|
口②②口 |--②-|
口口口口 |----|
40
口②②口 |--①-|
口口口口 |----|
口口口口 |--②-|
口①①口 |----|
41
口口口口 |①---|
①②③④ |②---|
口口口口 |③---|
口口口口 |④---|
42
口口口口 |①---|
口③③口 |②---|
口③③① |③---|
口口口② |----|
43
口口口口 |----|
①②③口 |①---|
口口口口 |②---|
口口口口 |③---|
44
口口口口 |①---|
口口口① |②---|
口口口② |③---|
口口④③ |④---|
45
口②②口 |①---|
口①①口 |----|
口口口口 |②---|
口口口口 |----|
46
口口口口 |----|
口口口口 |----|
口口口口 |----|
口口口口 |----|
47
口口口口 |①---|
①口口口 |----|
口口口口 |----|
口口口口 |----|
48
口口口口 |①---|
口①口口 |----|
口口口口 |----|
口口口口 |----|
49
口口口口 |①---|
口口①口 |----|
口口口口 |----|
口口口口 |----|
50
口口口口 |①---|
口口口① |----|
口口口口 |----|
口口口口 |----|
51
口口口口 |①---|
②口口口 |----|
①口口口 |②---|
口口口口 |----|
52
口口口口 |①---|
口②口口 |----|
口①口口 |②---|
口口口口 |----|
53
口口口口 |①---|
口口②口 |----|
口口①口 |②---|
口口口口 |----|
54
口口口口 |①---|
口口口② |----|
口口口① |②---|
口口口口 |----|
55
口①①口 |①---|
口②②口 |----|
口口口口 |②---|
口口口口 |----|
56
口口口口 |①---|
口口口口 |----|
口①①口 |②---|
口②②口 |----|
57
口①①口 |①---|
口②②口 |----|
口口口口 |②---|
口口口口 |----|
58
口口口口 |①---|
口口口口 |----|
口①①口 |②---|
口②②口 |----|
59
口口口口 |--①-|
口②②口 |----|
口①①口 |--②-|
口口口口 |----|
60
口口口口 |--①-|
①口口① |----|
②口口② |--②-|
口口口口 |----|
61
口口口口 |①---|
口①①口 |----|
口①①口 |----|
口口口口 |----|
62
口口口口 |①---|
①口口① |----|
①口口① |----|
口口口口 |----|
63
口口口口 |----|
①②③口 |①---|
口口口口 |②---|
口口口口 |③---|
64
口口口口 |①---|
口口口① |②---|
口口口② |③---|
口口④③ |④---|
65
口口口口 |①---|
口②②口 |----|
口①①口 |②---|
口口口口 |----|
66
口口口口 |----|
口口口口 |----|
口口口口 |----|
口口口口 |----|
67
口口口口 |--①-|
口①①口 |----|
口②②口 |--②-|
口口口口 |----|
68
口②②口 |--①-|
口口口口 |----|
口口口口 |--②-|
口①①口 |----|
69
口口口口 |①---|
①②③④ |②---|
口口口口 |③---|
口口口口 |④---|
70
口口口口 |①---|
口③③口 |②---|
口③③① |③---|
口口口② |----|
71
口口口口 |----|
①②③口 |①---|
口口口口 |②---|
口口口口 |③---|
72
口口口口 |①---|
口口口① |②---|
口口口② |③---|
口口④③ |④---|
73
口②②口 |①---|
口①①口 |----|
口口口口 |②---|
口口口口 |----|
74
口口口口 |----|
口口口口 |----|
口口口口 |----|
口口口口 |----|
75
口口口口 |①---|
口①①口 |----|
口口口口 |----|
口口口口 |----|
76
口口口口 |----|
口口口口 |----|
口口口口 |----|
口口口口 |----|
77
口口口口 |①---|
口口口口 |----|
口①①口 |----|
口口口口 |----|
78
口口口口 |----|
口口口口 |----|
口口口口 |----|
口口口口 |----|
79
口口口口 |①---|
①口口① |----|
口口口口 |----|
口口口口 |----|
80
口口口口 |----|
口口口口 |----|
口口口口 |----|
口口口口 |----|
81
口口口口 |①---|
口口口口 |----|
①口口① |----|
口口口口 |----|
82
口口口口 |----|
口口口口 |----|
口口口口 |----|
口口口口 |----|
83
口口口口 |①---|
口①①口 |----|
口①①口 |----|
口口口口 |----|


不确定度: 0

最終更新:2012年11月06日 23:02