光のロック

ADVANCED

Level: 4
BPM: 185
Notes: 302

1
口口口口 |----|
口口口口 |----|
口口口口 |----|
口口口口 |----|
2
口①口口 |①---|
口②口口 |②-③-|
口③⑤口 |--④-|
口④口口 |--⑤-|
3
口口②② |----|
口口①① |----|
口口口口 |①---|
口口口口 |②---|
4
口口口口 |①---|
⑤④口口 |②-③-|
口③②口 |--④-|
口口①口 |--⑤-|
5
②②①① |----|
口口口口 |----|
口口口口 |①---|
口口口口 |②---|
6
口口④口 |①---|
口⑤③口 |②-③-|
口口②口 |--④-|
口口①口 |--⑤-|
7
口口口口 |----|
口口口口 |----|
①①口口 |①---|
②②口口 |②---|
8
口①口口 |①---|
口②③口 |②-③-|
口口④⑤ |--④-|
口口口口 |--⑤-|
9
口口口口 |----|
口口口口 |----|
口口口口 |①---|
①①②② |②---|
10
口①①口 |①---|
口②③口 |--②-|
口④④口 |--③-|
口口口口 |--④-|
11
口口口口 |----|
口口口口 |----|
口口口口 |①---|
口①②口 |②---|
12
口口口口 |①---|
口⑤⑤口 |②-③-|
①③④② |--④-|
口口口口 |--⑤-|
13
②口口② |----|
①口口① |----|
口口口口 |①---|
口口口口 |②---|
14
口口口口 |①---|
口⑤⑤口 |②-③-|
②③口④ |--④-|
口①①口 |--⑤-|
15
口②①口 |----|
口口口口 |----|
口口口口 |①---|
口口口口 |②---|
16
口口口口 |①---|
②口③① |--②-|
口④④口 |--③-|
口口口口 |--④-|
17
口口口口 |----|
口口口口 |----|
口口口口 |①---|
①②②① |②---|
18
口口口口 |①---|
②口口④ |②---|
口①③口 |③---|
口口口口 |④---|
19
②口口④ |①---|
口①③口 |②---|
口口口口 |③---|
口口口口 |④---|
20
口①①口 |①---|
口③②口 |----|
口口口口 |②---|
口口口口 |③---|
21
口口口口 |①---|
口口口口 |②---|
口①②口 |③---|
口④③口 |④---|
22
口口口口 |①---|
口口口口 |②---|
④口口③ |③---|
②口口① |④---|
23
④口口③ |①---|
②口口① |②---|
口口口口 |③---|
口口口口 |④---|
24
口①①口 |①---|
口②③口 |----|
口口口口 |②---|
口口口口 |③---|
25
口口口口 |①---|
口口口口 |②---|
口②①口 |③---|
口③④口 |④---|
26
②口口④ |①---|
口①③口 |②---|
口口口口 |③---|
口口口口 |④---|
27
口①①口 |①---|
口③③口 |----|
口口口口 |②---|
口②②口 |③---|
28
口口口口 |①---|
口口口③ |----|
口①①② |②---|
口口口口 |③---|
29
④口口① |①---|
③口口口 |②---|
②口口口 |③---|
口口口口 |④---|
30
口①②口 |①---|
口③④口 |②---|
口口口口 |③---|
口口口口 |④---|
31
口口口口 |①---|
口口口口 |②---|
口①②口 |③---|
口③④口 |④---|
32
口口口口 |①---|
口口口口 |----|
口口口口 |----|
①口口① |----|
33
口口口口 |①---|
①③④② |②---|
口口口口 |③---|
口口口口 |④---|
34
口口口口 |①---|
口口口口 |----|
①①①① |②---|
②口口口 |----|
35
口口口口 |①---|
口口口口 |----|
口口口口 |②---|
口①口② |----|
36
口口口口 |①---|
口口口口 |----|
口②②口 |②---|
口口①口 |----|
37
口口口口 |①---|
口口口口 |②---|
①③④② |③---|
口口口口 |④---|
38
②口口口 |①---|
①①①① |----|
口口口口 |②---|
口口口口 |----|
39
口①口② |①---|
口口口口 |----|
口口口口 |②---|
口口口口 |----|
40
口口①口 |①---|
口②②口 |----|
口口口口 |②---|
口口口口 |----|
41
口口口口 |①---|
②④③① |②---|
口口口口 |③---|
口口口口 |④---|
42
口口口口 |①---|
口口口口 |----|
①①①① |②---|
②口口口 |----|
43
口口口口 |①---|
口口口口 |----|
口口口口 |②---|
口①口② |----|
44
口口口口 |①---|
口口口口 |----|
口②②口 |②---|
口口①口 |----|
45
口②口口 |①---|
口口③口 |----|
①口口① |②---|
口口口口 |③---|
46
口口口口 |①---|
口口口口 |----|
口①口口 |②---|
口②②口 |----|
47
口口口口 |----|
口②口口 |----|
口口①口 |①---|
口口口口 |②---|
48
③②①口 |①---|
口口②③ |--②-|
口口口口 |③---|
口口口口 |----|
49
口口口口 |----|
口口口口 |----|
口口口口 |----|
口口口口 |----|
50
①口②口 |①---|
③③④④ |②---|
口口口口 |③---|
口口口口 |④---|
51
口口口口 |①---|
口口口口 |②---|
①口②口 |③---|
口③口③ |----|
52
口口口口 |①---|
口口口口 |②---|
④④③③ |③---|
②口①口 |④---|
53
口③口③ |①---|
②口①口 |②---|
口口口口 |③---|
口口口口 |----|
54
①口①口 |①---|
②口②口 |----|
口口口口 |②---|
口口口口 |----|
55
口口口口 |①---|
口口口口 |----|
口②口② |②---|
口①口① |----|
56
口口口口 |①---|
口口③口 |②---|
口口②口 |③---|
口口①口 |----|
57
口②口口 |①---|
口①口口 |----|
口口口口 |②---|
口口口口 |----|
58
①口②口 |①---|
③③④④ |②---|
口口口口 |③---|
口口口口 |④---|
59
口口口口 |①---|
口口口口 |②---|
①口②口 |③---|
口③口③ |----|
60
口口口口 |①---|
口口口口 |②---|
④④③③ |③---|
②口①口 |④---|
61
口③口③ |①---|
②口①口 |②---|
口口口口 |③---|
口口口口 |----|
62
①口①口 |①---|
②口②口 |----|
口口口口 |②---|
口口口口 |----|
63
口口口口 |①---|
口口口口 |----|
口②口② |②---|
口①口① |----|
64
口口口口 |①---|
口口③口 |②---|
口口②口 |③---|
口口①口 |----|
65
口口口口 |①---|
口②口口 |----|
口①口口 |②---|
口口口口 |----|
66
①②②① |①---|
③④④③ |--②-|
口口口口 |--③-|
口口口口 |--④-|
67
口口口口 |----|
口口口口 |--①-|
口①①口 |----|
口①①口 |----|
68
口口口口 |①---|
口口口口 |--②-|
③④④③ |--③-|
①②②① |--④-|
69
口口口口 |----|
口①②③ |①---|
口口口口 |②---|
口口口口 |③---|
70
①口口① |①---|
口口口口 |--②-|
②②②② |--③-|
③④口口 |--④-|
71
口口口口 |--①-|
口口口口 |--②-|
②口口② |----|
口口①口 |----|
72
口口口口 |①---|
口④③口 |--②-|
口②①口 |--③-|
口口口口 |--④-|
73
口口口口 |----|
②口口① |----|
口口口口 |①---|
口口口口 |②---|
74
口口口口 |①---|
口口口口 |②---|
②口口① |③---|
④口口③ |④---|
75
口口口口 |①---|
口口口口 |----|
口①①口 |----|
口①①口 |----|


不确定度: 0

最終更新:2012年12月03日 19:13