光のロック

EXTREME

Level: 8
BPM: 185
Notes: 432

1
口口口口 |----|
口口口口 |----|
口口口口 |----|
口口口口 |----|
2
口①口口 |①-②-|
口②口⑧ |③-④-|
口③口⑧ |⑤-⑥-|
⑦⑥⑤④ |⑦-⑧-|
3
⑤口④口 |--①-|
①②③口 |②-③-|
⑦口⑥口 |④-⑤-|
口口口口 |⑥-⑦-|
4
口口口③ |①---|
口口④② |②-③-|
⑤⑤口口 |--④-|
口口口① |--⑤-|
5
④④②③ |--①-|
口①口口 |②---|
口口口口 |③---|
口口口口 |④---|
6
⑦口口口 |①-②-|
⑥③②① |③-④-|
⑤口口口 |⑤-⑥-|
④⑧⑧口 |⑦-⑧-|
7
口⑦①⑥ |--①-|
口口②口 |②-③-|
口⑤③④ |④-⑤-|
口口口口 |⑥-⑦-|
8
①口⑥口 |①-②-|
②口⑥口 |③-④-|
③⑤口口 |--⑤-|
④口口口 |--⑥-|
9
口口口③ |--①-|
口口口② |②---|
口口①④ |③---|
口口口④ |④---|
10
①口口④ |①---|
口②③⑤ |②-③-|
口口口⑥ |--④-|
口口口口 |⑤-⑥-|
11
口口口口 |--①-|
口口口口 |②-③-|
①②③⑤ |④---|
④口⑤口 |⑤---|
12
①口口③ |①---|
口④②⑤ |②-③-|
口口口口 |--④-|
口口口口 |--⑤-|
13
口口口口 |--①-|
口口口口 |②-③-|
①②③④ |④---|
口⑤⑤口 |⑤---|
14
口①口⑦ |①-②-|
口②⑧⑥ |③-④-|
口③⑧⑤ |⑤-⑥-|
口口口④ |⑦-⑧-|
15
口④④口 |--①-|
①②口口 |②-③-|
⑤⑤口口 |④---|
口③口口 |⑤---|
16
⑤⑤口③ |①---|
口④②口 |②-③-|
口口口口 |--④-|
口口口① |--⑤-|
17
口口口口 |--①-|
口口口口 |②-③-|
①②③口 |④---|
④口⑤⑤ |⑤---|
18
①口②口 |①---|
口口口口 |②---|
③口④口 |③---|
口口口口 |④---|
19
口⑦⑥口 |①-②-|
口①口⑤ |③-④-|
口②口④ |⑤---|
口③口口 |⑥-⑦-|
20
口口口口 |①-②-|
①⑤④口 |③-④-|
②⑥③⑦ |⑤-⑥-|
口口口口 |--⑦-|
21
口口②① |--①-|
口口口口 |②---|
口口③口 |③-④-|
④口口⑤ |⑤---|
22
口口口口 |①---|
口①口② |②---|
口口口口 |③---|
口③口④ |④---|
23
⑥⑤④口 |①-②-|
口口③口 |③-④-|
口口②口 |--⑤-|
口口①口 |⑥---|
24
口口口口 |①---|
①①口口 |----|
②④口口 |②-③-|
③⑤口口 |④-⑤-|
25
口口⑥⑥ |①-②-|
口口⑤⑤ |③-④-|
口口②④ |⑤---|
口口①③ |⑥---|
26
口口口口 |①---|
③口④口 |②---|
口⑤口口 |③---|
①口②口 |④-⑤-|
27
③②④口 |①-②-|
口①⑥⑤ |--③-|
口口口⑦ |④-⑤-|
口口口口 |⑥-⑦-|
28
口口口口 |①-②-|
口⑦口⑥ |③-④-|
③④⑤口 |⑤-⑥-|
口②①口 |--⑦-|
29
①②口口 |--①-|
口口③口 |--②-|
口口④口 |③-④-|
口口⑤口 |⑤---|
30
口口口口 |①---|
口①口② |②---|
口口口口 |③---|
口③口④ |④---|
31
口口口口 |①-②-|
口口口口 |③-④-|
①②③④ |--⑤-|
口⑥⑤口 |⑥---|
32
②口口口 |①---|
口①①③ |----|
口口口口 |②---|
口口口口 |③---|
33
口口口口 |①---|
口口①口 |②---|
②口口口 |③---|
口④④③ |④---|
34
②①①③ |①---|
口口口口 |----|
口口口口 |----|
口口口口 |②-③-|
35
口口口口 |----|
口①②口 |①-②-|
口④③口 |--③-|
口口口口 |④---|
36
口口口口 |①---|
口口口口 |--②-|
口口口口 |③---|
①③③② |----|
37
口③③口 |①---|
②口口口 |----|
口口口① |②---|
口口口口 |③---|
38
口口口口 |①---|
口口口口 |----|
口口口口 |----|
③①①② |②-③-|
39
口口口口 |----|
口③④口 |①-②-|
口②①口 |--③-|
口口口口 |④---|
40
②③③① |①---|
口口口口 |--②-|
口口口口 |③---|
口口口口 |----|
41
口口口口 |①---|
口口口① |----|
②口③③ |②---|
口口口口 |③---|
42
②③③② |①---|
①①口口 |----|
口口口口 |----|
口口口口 |②-③-|
43
口口口口 |--①-|
②口口① |--②-|
口④③口 |--③-|
口口口口 |④---|
44
口口口口 |①---|
口口口口 |--②-|
③口口③ |③---|
②①①② |----|
45
①②口口 |----|
口口④③ |--①-|
口口口口 |②-③-|
口口口口 |④---|
46
口口口口 |①---|
口口口口 |--②-|
②①①② |③---|
口③③口 |----|
47
口口②① |----|
③④口口 |--①-|
口口口口 |②-③-|
口口口口 |④---|
48
口口口口 |①---|
口口口口 |--②-|
③①①③ |③---|
②③③② |----|
49
②③③② |①---|
口①①口 |--②-|
口口口口 |③---|
口口口口 |----|
50
⑥⑦口口 |①-②-|
口⑤⑧④ |③-④-|
②口③口 |⑤-⑥-|
口①口口 |⑦-⑧-|
51
口口②① |①-②-|
⑦口口口 |③-④-|
口③③⑥ |--⑤-|
⑤④④口 |⑥-⑦-|
52
②口③① |①-②-|
⑧④⑤口 |③-④-|
口⑥⑦口 |⑤-⑥-|
口口口口 |⑦-⑧-|
53
口口口⑤ |①-②-|
口口⑥③ |③-④-|
②口⑦① |--⑤-|
口④④口 |⑥-⑦-|
54
口④口口 |----|
③口⑤口 |①-②-|
口口口口 |--③-|
口口②① |④-⑤-|
55
口口①口 |①-②-|
口②⑦⑦ |③-④-|
③口⑥⑥ |--⑤-|
口④⑤⑤ |⑥-⑦-|
56
口②①口 |----|
口①口口 |----|
口口口口 |①---|
口口口口 |②---|
57
口口口口 |①---|
①口口口 |②---|
口①②③ |③---|
口口③口 |----|
58
⑥⑦口口 |①-②-|
口⑤⑧④ |③-④-|
②口③口 |⑤-⑥-|
口①口口 |⑦-⑧-|
59
口口②① |①-②-|
⑦口口口 |③-④-|
口③③⑥ |--⑤-|
⑤④④口 |⑥-⑦-|
60
②口③① |①-②-|
⑧④⑤口 |③-④-|
口⑥⑦口 |⑤-⑥-|
口口口口 |⑦-⑧-|
61
口口口⑤ |①-②-|
口⑦⑥③ |③-④-|
②口口① |--⑤-|
口④④口 |⑥-⑦-|
62
口④口口 |----|
③口⑤口 |①-②-|
口口口口 |--③-|
口口②① |④-⑤-|
63
口口①口 |①-②-|
口②⑦⑦ |③-④-|
③口⑥⑥ |--⑤-|
口④⑤⑤ |⑥-⑦-|
64
口口①口 |----|
②①口口 |----|
口②口口 |①---|
口口口口 |②---|
65
口口口口 |①---|
口口②口 |----|
口口②① |②---|
口口①口 |----|
66
③①④⑤ |①---|
口①口口 |②-③-|
②口口口 |--④-|
口口口口 |--⑤-|
67
口口口口 |--①-|
口①口口 |--②-|
口口②口 |----|
口口口口 |----|
68
口口口口 |①---|
口口口口 |--②-|
口口④口 |--③-|
③口②① |--④-|
69
①②③口 |--①-|
④口口⑤ |②-③-|
⑥口⑦口 |④-⑤-|
口口口口 |⑥-⑦-|
70
②②②② |①---|
③④口口 |--②-|
口口口口 |--③-|
①①①① |--④-|
71
口口口口 |--①-|
口口①② |--②-|
③④口口 |--③-|
口口口⑤ |④-⑤-|
72
②③口口 |①---|
口口口④ |--②-|
口口口① |--③-|
口口口④ |--④-|
73
口口口口 |----|
①③②口 |①---|
口口口口 |②---|
口口口口 |③---|
74
口口口口 |①---|
口口口① |②---|
口③②口 |③---|
④口口口 |④---|
75
口口口口 |①---|
口口口口 |----|
口口口口 |----|
口口①① |----|


不确定度: 0

最終更新:2012年12月03日 19:12