ふがいないや

BASIC

Level: 2
BPM: 159
Notes: 216

1
口口口口 |----|
口口口口 |----|
口口口口 |----|
口口口口 |----|
2
口口口口 |①---|
口口①口 |----|
口口口口 |----|
口口口口 |----|
3
口口口口 |①---|
口口口口 |----|
口①口口 |----|
口口口口 |----|
4
口口口口 |①---|
口口口口 |----|
口口①口 |----|
口口口口 |----|
5
口口口口 |①---|
口①口口 |----|
口口口口 |----|
口口口口 |----|
6
口口口① |①---|
口口口口 |----|
口口口口 |----|
口口口口 |----|
7
口口口口 |①---|
口口口口 |----|
口口口口 |----|
①口口口 |----|
8
口口口口 |①---|
口口口口 |----|
口口口口 |----|
口口口① |----|
9
①口口口 |①---|
口口口口 |----|
口口口口 |----|
口口口口 |----|
10
口口口口 |①---|
口①口口 |----|
口口口口 |----|
口口口口 |----|
11
口口口口 |①---|
口口口口 |----|
口口①口 |----|
口口口口 |----|
12
口口口口 |①---|
口口①口 |----|
口②口口 |②---|
口口口口 |----|
13
口口口口 |①---|
口②口口 |----|
口口①口 |②---|
口口口口 |----|
14
①口口口 |①---|
口口口口 |----|
口口口口 |②---|
口口口② |----|
15
口口口② |①---|
口口口口 |----|
口口口口 |②---|
①口口口 |----|
16
口口口口 |①---|
口口①口 |----|
口②口口 |②---|
口口口口 |----|
17
口口口口 |①---|
口②口口 |----|
口口①口 |②---|
口口口口 |----|
18
①口口口 |①---|
口口口口 |----|
口口口口 |②---|
口口口② |----|
19
口口口口 |①---|
口口口口 |----|
②口口② |②---|
口①①口 |----|
20
口口口口 |①---|
②口口② |----|
口①①口 |②---|
口口口口 |----|
21
②口口② |①---|
口①①口 |----|
口口口口 |②---|
口口口口 |----|
22
口①①口 |①---|
口口口口 |----|
口口口口 |----|
口口口口 |----|
23
口①口口 |①---|
口②口口 |②---|
口口③口 |③---|
口口④口 |④---|
24
口口口口 |----|
口①①口 |----|
口口口口 |①---|
口口口口 |----|
25
①口口① |①---|
口②②口 |----|
口口口口 |②---|
口口口口 |----|
26
口口口口 |①---|
口口口口 |----|
口①①口 |----|
口口口口 |----|
27
①②口口 |①---|
口口口口 |----|
口口口口 |②---|
口口口口 |----|
28
口口①② |①---|
口口口口 |----|
口口口口 |②---|
口口口口 |----|
29
口口口口 |①---|
口口口口 |----|
口口②① |②---|
口口口口 |----|
30
口口口口 |①---|
口口口口 |----|
②①口口 |②---|
口口口口 |----|
31
口口口口 |①---|
①②口口 |----|
口口口口 |②---|
口口口口 |----|
32
口口口口 |①---|
口口①② |----|
口口口口 |②---|
口口口口 |----|
33
口口口口 |①---|
口口口口 |----|
口口口口 |②---|
口口②① |----|
34
口口口口 |①---|
口口口口 |----|
口口口口 |②---|
②①口口 |----|
35
①口②口 |①---|
口口口口 |----|
口口口口 |②---|
口口口口 |----|
36
口①口② |①---|
口口口口 |----|
口口口口 |②---|
口口口口 |----|
37
口口口口 |①---|
口②口① |----|
口口口口 |②---|
口口口口 |----|
38
口口口口 |①---|
②口①口 |----|
口口口口 |②---|
口口口口 |----|
39
口口口口 |①---|
口口口口 |----|
①口②口 |②---|
口口口口 |----|
40
口口口口 |①---|
口口口口 |----|
口①口② |②---|
口口口口 |----|
41
口口口口 |①---|
口口口口 |----|
口口口口 |②---|
口②口① |----|
42
口口口口 |①---|
口口口口 |----|
口口口口 |②---|
②口①口 |----|
43
口口口口 |①---|
口口口口 |②---|
④口口③ |③---|
口②①口 |④---|
44
口口口口 |①---|
④口口③ |②---|
口②①口 |③---|
口口口口 |④---|
45
④口口③ |①---|
口②①口 |②---|
口口口口 |③---|
口口口口 |④---|
46
口②①口 |①---|
口口口口 |②---|
口口口口 |----|
口口口口 |----|
47
口口①口 |①---|
口口②口 |②---|
口③口口 |③---|
口④口口 |④---|
48
口口口口 |----|
口①①口 |----|
口口口口 |①---|
口口口口 |----|
49
①口口① |①---|
口②②口 |----|
口口口口 |②---|
口口口口 |----|
50
口口口口 |①---|
口口口口 |----|
口①①口 |----|
口口口口 |----|
51
口口③② |①---|
口口①④ |②---|
口口口口 |③---|
口口口口 |④---|
52
口口口口 |①---|
口口口口 |②---|
口口④① |③---|
口口②③ |④---|
53
②③口口 |①---|
④①口口 |②---|
口口口口 |③---|
口口口口 |④---|
54
口口口口 |①---|
口口口口 |②---|
①③口口 |③---|
④②口口 |④---|
55
口①口口 |①---|
口口②口 |②---|
口③口口 |③---|
口口④口 |④---|
56
口口口口 |----|
口①①口 |----|
口口口口 |①---|
口口口口 |----|
57
①口口① |①---|
口②②口 |----|
口口口口 |②---|
口口口口 |----|
58
②口口② |①---|
口口口口 |----|
口①①口 |②---|
口口口口 |----|
59
口①①口 |①---|
口②②口 |----|
口口口口 |②---|
口口口口 |----|
60
口口口口 |①---|
口口口口 |----|
口①①口 |----|
口口口口 |----|
61
口口口口 |----|
口口口口 |----|
口口口口 |----|
口口口口 |----|
62
口口口口 |----|
口口口口 |----|
口口口口 |----|
口口口口 |----|
63
①口口口 |①---|
口②口口 |②---|
口③口口 |③---|
④口口口 |④---|
64
口口口① |①---|
口口②口 |②---|
口口③口 |③---|
口口口④ |④---|
65
口口口口 |①---|
口口口口 |----|
口②②口 |②---|
口①①口 |----|
66
口口口口 |①---|
口①①口 |----|
口口口口 |----|
口口口口 |----|
67
口口④口 |①---|
口口口③ |②---|
口口口② |③---|
口口①口 |④---|
68
口④口口 |①---|
③口口口 |②---|
②口口口 |③---|
口①口口 |④---|
69
口口口口 |----|
口口口口 |----|
①口口① |①---|
口口口口 |----|
70
口口口口 |①---|
②口口② |----|
口①①口 |②---|
口口口口 |----|
71
②口口② |①---|
口①①口 |----|
口口口口 |②---|
口口口口 |----|
72
口①①口 |①---|
口口口口 |----|
口口口口 |----|
口口口口 |----|
73
口口口口 |①---|
口口口口 |②---|
口口③④ |③---|
口口②① |④---|
74
口口③④ |①---|
口口②① |②---|
口口口口 |③---|
口口口口 |④---|
75
①②口口 |①---|
④③口口 |②---|
口口口口 |③---|
口口口口 |④---|
76
口口口口 |①---|
口口口口 |②---|
①②口口 |③---|
④③口口 |④---|
77
口口①口 |①---|
口②②口 |----|
口口口口 |②---|
口口口口 |----|
78
口口口口 |①---|
口口口口 |----|
口①口口 |②---|
口②②口 |----|
79
口①口口 |①---|
口②②口 |----|
口口口口 |②---|
口口口口 |----|
80
口口口口 |①---|
口口口口 |----|
口口①口 |②---|
口②②口 |----|
81
口口口口 |①---|
③⑤⑤③ |②---|
②④④② |③---|
①口口① |④-⑤-|


不确定度: 0

最終更新:2012年12月03日 19:10