ふがいないや

ADVANCED

Level: 5
BPM: 159
Notes: 429

1
口口口口 |----|
口口口口 |----|
口口口口 |----|
口口口口 |----|
2
①③④② |①---|
口口口口 |②---|
口口口口 |③---|
口口口口 |④---|
3
口口口口 |①---|
①③④② |②---|
口口口口 |③---|
口口口口 |④---|
4
口口口口 |①---|
口口口口 |②---|
①③④② |③---|
口口口口 |④---|
5
口口口口 |①---|
口口口口 |②---|
口口口口 |③---|
①③④② |④---|
6
①口口口 |①---|
②口口口 |②---|
③口口口 |③---|
④口口口 |④---|
7
口④口口 |①---|
口③口口 |②---|
口②口口 |③---|
口①口口 |④---|
8
口口口① |①---|
口口口② |②---|
口口口③ |③---|
口口口④ |④---|
9
口口④口 |①---|
口口③口 |②---|
口口②口 |③---|
口口①口 |④---|
10
口口口口 |①---|
④③③④ |②---|
口②②口 |③---|
口①①口 |④---|
11
①②口口 |①---|
口口④③ |②---|
口口口口 |③---|
口口口口 |④---|
12
口口口口 |①---|
口口口口 |②---|
①②口口 |③---|
口口④③ |④---|
13
口口②① |①---|
③④口口 |②---|
口口口口 |③---|
口口口口 |④---|
14
口口口口 |①---|
口口口口 |②---|
口口②① |③---|
③④口口 |④---|
15
①口口口 |①---|
②口口口 |②---|
口④口口 |③---|
口③口口 |④---|
16
口口①口 |①---|
口口②口 |②---|
口口口④ |③---|
口口口③ |④---|
17
口③口口 |①---|
口④口口 |②---|
②口口口 |③---|
①口口口 |④---|
18
口口口③ |①---|
口口口④ |②---|
口口②口 |③---|
口口①口 |④---|
19
口口口口 |①---|
口口口口 |②---|
③④④③ |③---|
①②②① |④---|
20
③④④③ |①---|
①②②① |②---|
口口口口 |③---|
口口口口 |④---|
21
口口口口 |①---|
①②③④ |②---|
①②③④ |③---|
口口口口 |④---|
22
④③②① |①---|
口口口口 |②---|
口口口口 |③---|
④③②① |④---|
23
口口口口 |①---|
口②口④ |②---|
①口③口 |③---|
口口口口 |④---|
24
口口口口 |①---|
④口②口 |②---|
口③口① |③---|
口口口口 |④---|
25
口口口口 |①---|
④③③④ |②---|
②口口② |③---|
口①①口 |④---|
26
②①①② |①---|
口口口口 |②---|
口口口口 |----|
口口口口 |----|
27
③①②③ |①---|
口④口口 |②---|
口口口口 |③---|
口口口口 |④---|
28
口口口口 |①---|
②口①② |②---|
口③④口 |③---|
口口口口 |④---|
29
口口口口 |①---|
口口口口 |②---|
①口口① |③---|
④②③④ |④---|
30
口口口口 |①---|
②口口② |②---|
①口口① |----|
口口口口 |----|
31
①③③② |①---|
④口口口 |②---|
口口口口 |③---|
口口口口 |④---|
32
口口口口 |①---|
口②②① |②---|
③口口④ |③---|
口口口口 |④---|
33
口口口口 |①---|
口口口口 |②---|
口①①口 |③---|
②④④③ |④---|
34
口口口口 |①---|
口②②口 |②---|
口①①口 |----|
口口口口 |----|
35
①②口口 |①---|
④③口口 |②---|
口口口口 |③---|
口口口口 |④---|
36
口口口口 |①---|
口口④口 |②---|
①②③口 |③---|
口口口口 |④---|
37
口口①② |①---|
口口口③ |②---|
口口口④ |③---|
口口口口 |④---|
38
口口口口 |①---|
口口口口 |②---|
口口口口 |③---|
④③②① |④---|
39
口口口口 |①---|
口口口口 |②---|
口口③④ |③---|
口口②① |④---|
40
口口口口 |①---|
口③②① |②---|
口④口口 |③---|
口口口口 |④---|
41
口口口口 |①---|
④口口口 |②---|
③口口口 |③---|
②①口口 |④---|
42
①②③④ |①---|
口口口口 |②---|
口口口口 |③---|
口口口口 |④---|
43
②④口口 |①---|
①③口口 |②---|
①③口口 |③---|
②④口口 |④---|
44
口口②④ |①---|
口口①③ |②---|
口口①③ |③---|
口口②④ |④---|
45
②①③④ |①---|
口口口口 |②---|
口口口口 |③---|
口口口口 |④---|
46
口口口口 |①---|
口口口口 |②---|
②①①② |③---|
④③③④ |④---|
47
口①口口 |①---|
②口口口 |②---|
口③口口 |③---|
④口口口 |④---|
48
口口①口 |①---|
口口口② |②---|
口口③口 |③---|
口口口④ |④---|
49
口口口口 |①---|
③④④③ |②---|
①口口① |③---|
口②②口 |④---|
50
①②②① |①---|
口口口口 |②---|
口口口口 |----|
口口口口 |----|
51
①②口口 |①---|
②③④口 |②---|
口④口口 |③---|
口口口口 |④---|
52
口口口口 |①---|
口口口口 |②---|
口口①② |③---|
口口②③ |----|
53
口口②① |①---|
口④③② |②---|
口口④口 |③---|
口口口口 |④---|
54
口口口口 |①---|
口口口口 |②---|
②①口口 |③---|
③②口口 |----|
55
口口口口 |①---|
口口④口 |②---|
口④③② |③---|
口口②① |④---|
56
③②口口 |①---|
②①口口 |②---|
口口口口 |③---|
口口口口 |----|
57
口口口口 |①---|
口④口口 |②---|
②③④口 |③---|
①②口口 |④---|
58
口口②③ |①---|
口口①② |②---|
口口口口 |③---|
口口口口 |----|
59
口口口口 |①---|
口②②口 |②---|
①③③① |③---|
口④④口 |④---|
60
④口口④ |①---|
③口口③ |②---|
②口口② |③---|
①口口① |④---|
61
口①①口 |①---|
口②②口 |②---|
口③③口 |③---|
④口口④ |④---|
62
④口口④ |①---|
口③③口 |②---|
②口口② |③---|
口①①口 |④---|
63
口①口口 |①---|
②口④口 |②---|
口③口口 |③---|
口口口口 |④---|
64
③口口口 |①---|
④口口口 |②---|
口口口① |③---|
口口②口 |④---|
65
口口口口 |①---|
口口口② |②---|
①口口③ |③---|
口口口④ |④---|
66
口口口口 |①---|
口①①口 |----|
口①①口 |----|
口口口口 |----|
67
口口口口 |①---|
口③②① |②---|
①②③口 |③---|
口口口口 |----|
68
①②③口 |①---|
口口口口 |②---|
口口口口 |③---|
口③②① |----|
69
③口口口 |①---|
②口口① |②---|
①口口② |③---|
口口口③ |----|
70
口口口口 |①---|
口②①③ |②---|
③①②口 |③---|
口口口口 |----|
71
口②③口 |①---|
①口口口 |②---|
口口口① |③---|
口③②口 |----|
72
口口口① |①---|
口③②口 |②---|
口②③口 |③---|
①口口口 |----|
73
①口口口 |①---|
②口口③ |②---|
③口口② |③---|
口口口① |----|
74
口口①口 |①---|
③口②口 |②---|
口②口③ |③---|
口①口口 |----|
75
口①①口 |①---|
口②②口 |②---|
口③③口 |③---|
口④④口 |④---|
76
④口口④ |①---|
③口口③ |②---|
②口口② |③---|
①口口① |④---|
77
口①①口 |①---|
口口②口 |②---|
口③口口 |③---|
口口④口 |④---|
78
①①口口 |①---|
口②口口 |②---|
③口口口 |③---|
口④口口 |④---|
79
口口①① |①---|
口口②口 |②---|
口口口③ |③---|
口口④口 |④---|
80
④口口④ |①---|
③口口③ |②---|
口②②口 |③---|
①口口① |④---|
81
口④④口 |①---|
口③③口 |②---|
口②②口 |③---|
口①①口 |④---|
82
①口口① |①---|
口口口口 |----|
口口口口 |----|
口口口口 |----|


不确定度: 0

最終更新:2012年12月03日 19:09