ふがいないや

EXTREME

Level: 7
BPM: 159
Notes: 578

1
口口口口 |----|
口口口口 |----|
口口口口 |----|
口口口口 |----|
2
口⑧⑦口 |①-②-|
口⑥⑤口 |③-④-|
口④③口 |⑤-⑥-|
口②①口 |⑦-⑧-|
3
②口口① |①-②-|
④口口③ |③-④-|
⑥口口⑤ |⑤-⑥-|
⑧口口⑦ |⑦-⑧-|
4
①②口口 |①-②-|
口③④口 |③-④-|
口口⑤⑥ |⑤-⑥-|
口口⑧⑦ |⑦-⑧-|
5
口口口⑤ |①-②-|
口口④口 |③-④-|
口③口口 |⑤---|
②①口口 |----|
6
口②④口 |①---|
①③口口 |②---|
①③口口 |③---|
口②④口 |④---|
7
口口口② |①---|
口口①③ |②---|
口口①③ |③---|
口口口② |----|
8
口口⑧⑦ |①-②-|
口口⑤⑥ |③-④-|
口③④口 |⑤-⑥-|
①②口口 |⑦-⑧-|
9
②①口口 |①-②-|
口③口口 |③-④-|
口口④口 |⑤---|
口口口⑤ |----|
10
口④②口 |①---|
口口③① |②---|
口口③① |③---|
口④②口 |④---|
11
②口口口 |①---|
③①口口 |②---|
③①口口 |③---|
②口口口 |----|
12
口①①口 |①-②-|
口②②口 |③-④-|
口③③口
④口口④

口⑧⑧口
⑦口口⑦
⑥口口⑥ |⑤-⑥-|
口⑤⑤口 |⑦-⑧-|
13
①口口① |①-②-|
口②②口 |③-④-|
口③③口 |----|
④口口④ |----|
14
口⑦口① |①-②-|
口⑧口② |③-④-|
④口⑥口 |⑤-⑥-|
③口⑤口 |⑦-⑧-|
15
④口口口 |①-②-|
③口⑤口 |③-④-|
口⑥口① |⑤---|
口口口② |⑥---|
16
口口②① |----|
口④③② |①-②-|
⑥⑤④口 |③-④-|
口⑥口口 |⑤-⑥-|
17
口口口口 |①---|
口口口② |----|
③口口口 |--②-|
①口口口 |③---|
18
①②口口 |①-②-|
②③④口 |③-④-|
口④⑤⑥ |⑤-⑥-|
口口⑥⑦ |⑦---|
19
②①①② |①---|
口④③口 |②---|
口⑥⑤口 |③-④-|
口口口口 |⑤-⑥-|
20
口口口口 |①-②-|
③口口④ |----|
④口口③ |③---|
口②①口 |④---|
21
口口口口 |①---|
口⑥⑤口 |②---|
口④③口 |③-④-|
②①①② |⑤-⑥-|
22
口②①口 |①-②-|
③口口④ |----|
④口口③ |③---|
口口口口 |④---|
23
③②②③ |①---|
口①①口 |②---|
口口口口 |③---|
口口⑤④ |④-⑤-|
24
口口口口 |①-②-|
④⑤⑤④ |--③-|
口③③口 |④---|
①②口口 |--⑤-|
25
①②②① |①---|
③口口③ |--②-|
口④④口 |③---|
口口口口 |--④-|
26
口口口口 |①---|
口口口口 |----|
口口口口 |----|
口①①口 |----|
27
①口口口 |①-②-|
②③口口 |③-④-|
口④⑤⑧ |⑤-⑥-|
口口⑥⑦ |⑦-⑧-|
28
口口口② |①-②-|
口口③① |③-④-|
口④口口 |⑤---|
⑤口口口 |----|
29
口④②口 |①---|
口口③① |②---|
口口③① |③---|
口④②口 |④---|
30
②口口口 |①---|
③①口口 |②---|
③①口口 |③---|
②口口口 |----|
31
⑦⑥口口 |①-②-|
⑧⑤④口 |③-④-|
口口③② |⑤-⑥-|
口口口① |⑦-⑧-|
32
口口口⑤ |①-②-|
口口④口 |③-④-|
①③口口 |⑤---|
②口口口 |----|
33
口②④口 |①---|
①③口口 |②---|
①③口口 |③---|
口②④口 |④---|
34
口口口② |①---|
口口①③ |②---|
口口①③ |③---|
口口口② |----|
35
口①①口 |①-②-|
口②②口 |③-④-|
口③③口
④口口④

口⑧⑧口
⑦口口⑦
⑥口口⑥ |⑤-⑥-|
口⑤⑤口 |⑦-⑧-|
36
①口口① |①-②-|
口②②口 |③-④-|
口③③口 |----|
④口口④ |----|
37
口⑦口① |①-②-|
口⑧口② |③-④-|
④口⑥口 |⑤-⑥-|
③口⑤口 |⑦-⑧-|
38
④口口口 |①-②-|
③口⑤口 |③-④-|
口⑥口① |⑤---|
口口口② |⑥---|
39
口口②① |----|
口④③② |①-②-|
⑥⑤④口 |③-④-|
口⑥口口 |⑤-⑥-|
40
口口口口 |①---|
口口口② |----|
③口口口 |--②-|
①口口口 |③---|
41
①②口口 |①-②-|
②③④口 |③-④-|
口④⑤⑥ |⑤-⑥-|
口口⑥⑦ |⑦---|
42
口口口口 |----|
口口口口 |----|
口口口口 |----|
口口口口 |----|
43
②①①② |①---|
口④③口 |②---|
口⑥⑤口 |③-④-|
口口口口 |⑤-⑥-|
44
口口口口 |①-②-|
③口口④ |----|
④口口③ |③---|
口②①口 |④---|
45
口口口口 |①---|
口⑥⑤口 |②---|
口④③口 |③-④-|
②①①② |⑤-⑥-|
46
口②①口 |①-②-|
③口口④ |----|
④口口③ |③---|
口口口口 |④---|
47
③②②③ |①---|
口①①口 |②---|
口口口口 |③---|
口口⑤④ |④-⑤-|
48
口口口口 |①-②-|
④⑤⑤④ |--③-|
口③③口 |④---|
①②口口 |--⑤-|
49
①②②① |①---|
③口口③ |--②-|
口④④口 |③---|
口口口口 |--④-|
50
口口口口 |①---|
口口口口 |----|
口口口口 |----|
口①①口 |----|
51
②①①② |①---|
口④③口 |②---|
口⑥⑤口 |③-④-|
口口口口 |⑤-⑥-|
52
口口口口 |①-②-|
③口口④ |----|
④口口③ |③---|
口②①口 |④---|
53
口口口口 |①---|
口⑥⑤口 |②---|
口④③口 |③-④-|
②①①② |⑤-⑥-|
54
口②①口 |①-②-|
③口口④ |----|
④口口③ |③---|
口口口口 |④---|
55
③②②③ |①---|
口①①口 |②---|
口口口口 |③---|
口口⑤④ |④-⑤-|
56
口口口口 |①-②-|
④⑤⑤④ |--③-|
口③③口 |④---|
①②口口 |--⑤-|
57
①②②① |①---|
③口口③ |--②-|
④口口④ |③---|
口口口口 |--④-|
58
口口口口 |①---|
③④④③ |--②-|
口②②口 |③---|
口①①口 |--④-|
59
①②②① |①---|
③口口③ |--②-|
口④④口 |③---|
口口口口 |--④-|
60
口口口口 |①---|
口口口口 |----|
口口口口 |----|
口①①口 |----|
61
口⑧⑦口 |①-②-|
口⑥⑤口 |③-④-|
口④③口 |⑤-⑥-|
口②①口 |⑦-⑧-|
62
口口⑧① |①-②-|
口口⑥③ |③-④-|
口口⑦② |⑤-⑥-|
口口⑤④ |⑦-⑧-|
63
⑧①口口 |①-②-|
⑥③口口 |③-④-|
⑦②口口 |⑤-⑥-|
⑤④口口 |⑦-⑧-|
64
口口口口 |----|
②③③② |--①-|
口①①口 |②---|
口口口口 |--③-|
65
①②②① |①---|
③口口③ |--②-|
口④④口 |③---|
口口口口 |--④-|
66
口口口口 |①---|
口口口口 |----|
口口口口 |----|
口①①口 |----|
67
①①②② |①---|
③①②③ |②---|
④④口口 |③---|
口④口口 |④---|
68
口口口口 |①---|
③口口③ |②---|
口口①① |③---|
②口①② |----|
69
①①②② |①---|
③①②③ |②---|
④④口口 |③---|
口④口口 |④---|
70
口口口口 |①---|
③口口③ |②---|
口口①① |③---|
②口①② |----|
71
①②口口 |①-②-|
口③④口 |③-④-|
口口⑤⑥ |⑤-⑥-|
口口⑧⑦ |⑦-⑧-|
72
口口口⑤ |①-②-|
口口④口 |③-④-|
口③口口 |⑤---|
②①口口 |----|
73
⑦⑧口口 |①-②-|
⑥⑤口口 |③-④-|
口④③口 |⑤-⑥-|
口口②① |⑦-⑧-|
74
口口①② |①-②-|
口口③口 |③-④-|
口④口口 |⑤---|
⑤口口口 |----|
75
口②④口 |①---|
①③口口 |②---|
①③口口 |③---|
口②④口 |④---|
76
口口口② |①---|
口口①③ |②---|
口口①③ |③---|
口口口② |----|
77
②①①② |①---|
③口口③ |②---|
口④④口 |③---|
口口口口 |④---|
78
口口口口 |①---|
口口口口 |②---|
①口口① |③---|
③②②③ |----|
79
①①①① |①---|
口口③② |②-③-|
④⑤口口 |④-⑤-|
口口⑦⑥ |⑥-⑦-|
80
口口口口 |①-②-|
①②口口 |③-④-|
口口④③ |⑤-⑥-|
⑤⑥口口 |----|
81
①①①① |①---|
口口③② |②-③-|
④⑤口口 |④-⑤-|
口口⑦⑥ |⑥-⑦-|


不确定度: 0

最終更新:2012年12月03日 19:09