キューティーハニー

BASIC

Level: 3
BPM: 155
Notes: 161

1
口口口口 |----|
口口口口 |----|
口口口口 |----|
口口口口 |----|
2
口口①口 |①---|
口口口口 |----|
口口口口 |----|
口口口口 |----|
3
口口口口 |----|
口口口口 |----|
口口口口 |----|
口口口口 |----|
4
口①②口 |①---|
口口口口 |----|
口口口口 |②---|
口口口口 |----|
5
口①②口 |①---|
口口口口 |----|
口口口口 |②---|
口口口口 |----|
6
口口口口 |①---|
口①②口 |②---|
口③④口 |③---|
口口口口 |④---|
7
口口口口 |①---|
口口口口 |--②-|
口口口口 |----|
口①②口 |----|
8
口④③口 |①---|
口口口② |②---|
口口口① |③---|
口口口口 |④---|
9
口口口口 |①---|
口①口口 |②---|
口③②口 |③---|
口口口口 |----|
10
口口口口 |①---|
口口口口 |②---|
①口口④ |③---|
口②③口 |④---|
11
口口口口 |①---|
口口①口 |②---|
口②③口 |③---|
口口口口 |----|
12
口③②口 |①---|
④口口① |②---|
口口口口 |③---|
口口口口 |④---|
13
口口口口 |①-②-|
口①口口 |----|
口口②口 |----|
口口口口 |----|
14
口口口① |--①-|
口口②口 |--②-|
口口口③ |③---|
口口④口 |④---|
15
口口口口 |--①-|
口口④口 |--②-|
口③②口 |③---|
口①口口 |④---|
16
口①口口 |①---|
口口口口 |----|
口口口口 |----|
口口口口 |----|
17
口③口① |①---|
④口②口 |②---|
口口口口 |③---|
口口口口 |④---|
18
口口口口 |①---|
口口②口 |----|
口①口口 |----|
口口口口 |②---|
19
口口口口 |①---|
口口口口 |----|
口口口① |----|
口口口口 |----|
20
口口口口 |①---|
口②③口 |②---|
口④①口 |③---|
口口口口 |④---|
21
口口口口 |①---|
口口口② |----|
口口口口 |----|
口口①口 |②---|
22
口口口口 |①---|
口②口口 |----|
口口①口 |----|
口口口口 |②---|
23
口口口口 |①---|
口口口口 |----|
①口口口 |②---|
口②口口 |----|
24
口口③口 |①---|
口②口④ |②---|
口口①口 |③---|
口口口口 |④---|
25
口口口口 |①---|
口口口口 |----|
③口①口 |②---|
口②口口 |③---|
26
①口口口 |--①-|
③②口口 |②---|
口④口口 |--③-|
口口口口 |④---|
27
口口口口 |--①-|
口口口口 |②---|
①口口④ |③---|
口②③口 |④---|
28
口口口口 |①-②-|
口口①口 |----|
口②口口 |----|
口口口口 |----|
29
口口口口 |①-②-|
口口口① |③---|
④口②口 |④---|
口③口口 |----|
30
口口口口 |①---|
口①①口 |----|
口①①口 |----|
口口口口 |----|
31
口口口口 |----|
口口口口 |----|
口口口口 |----|
口口口口 |----|
32
口口口口 |①---|
①②口④ |②---|
口口③口 |-③--|
口口口口 |④---|
33
口口口口 |①---|
口口①口 |--②-|
口②口口 |----|
口口口口 |----|
34
口③④口 |①---|
②口口口 |②---|
①口口口 |③---|
口口口口 |④---|
35
口口口口 |①---|
口口①口 |②---|
口②③口 |③---|
口口口口 |----|
36
口口④口 |①---|
口口口③ |②---|
口口口② |③---|
口口①口 |④---|
37
口口口口 |①---|
口①口口 |②---|
口③②口 |③---|
口口口口 |----|
38
口②③口 |①---|
①口口④ |②---|
口口口口 |③---|
口口口口 |④---|
39
口口口口 |①-②-|
口口①口 |----|
口②口口 |----|
口口口口 |----|
40
①口口口 |--①-|
口②口口 |--②-|
③口口口 |③---|
口④口口 |④---|
41
口口口口 |--①-|
口④口口 |--②-|
口②③口 |③---|
口口①口 |④---|
42
口口①口 |①---|
口口口口 |----|
口口口口 |----|
口口口口 |----|
43
①口③口 |①---|
口②口④ |②---|
口口口口 |③---|
口口口口 |④---|
44
口口口口 |①---|
口②口口 |----|
口口①口 |----|
口口口口 |②---|
45
口口口口 |①---|
口口口口 |----|
①口口口 |----|
口口口口 |----|
46
口口口口 |①---|
口③②口 |②---|
口①④口 |③---|
口口口口 |④---|
47
口口口口 |①---|
②口口口 |----|
口口口口 |----|
口①口口 |②---|
48
口口口口 |①---|
口口②口 |----|
口①口口 |----|
口口口口 |②---|
49
口口口口 |①---|
口口口口 |----|
口口口① |②---|
口口②口 |----|
50
口③口口 |①---|
④口②口 |②---|
口①口口 |③---|
口口口口 |④---|
51
口口口口 |①---|
口口口口 |----|
口①口③ |②---|
口口②口 |③---|
52
口口口① |--①-|
口口②③ |②---|
口口④口 |--③-|
口口口口 |④---|
53
口口口口 |--①-|
口口口口 |②---|
④口口① |③---|
口③②口 |④---|
54
口口口口 |①-②-|
口①口口 |----|
口口②口 |----|
口口口口 |----|
55
口口口口 |①-②-|
①口口口 |③---|
口②口④ |④---|
口口③口 |----|
56
口口口口 |①---|
口①①口 |----|
口①①口 |----|
口口口口 |----|
57
口口口口 |----|
口口口口 |----|
口口口口 |----|
口口口口 |----|
58
口口口口 |----|
①口口① |----|
口口口口 |①---|
口口口口 |----|


不确定度: 0

最終更新:2012年12月03日 19:08