キューティーハニー

ADVANCED

Level: 5
BPM: 155
Notes: 257

1
口口口口 |----|
口口口口 |----|
口口口口 |----|
口口口口 |----|
2
②口口① |①---|
④口口③ |②---|
口口口口 |③---|
口口口口 |④---|
3
口口口口 |①---|
口口口口 |②---|
②口口① |③---|
口口口③ |----|
4
口②②① |①---|
③④④口 |②---|
口口口口 |③---|
口口口口 |④---|
5
口口口口 |①---|
口口口口 |②---|
口②②① |③---|
③④④口 |④---|
6
①②③④ |①-②-|
口口口⑤ |③-④-|
⑧⑦⑥口 |-⑤-⑥|
口口口口 |⑦-⑧-|
7
口口口口 |①-②-|
口口口口 |③-④-|
口口口口 |----|
①②③④ |----|
8
口口口口 |①---|
④口口① |②---|
口③②口 |③---|
口口口口 |④---|
9
口口口口 |①---|
口①①口 |②---|
②口口② |③---|
口③③口 |----|
10
①口口④ |①---|
口②③口 |②---|
口口口口 |③---|
口口口口 |④---|
11
口①①口 |①---|
②口口② |②---|
口③③口 |③---|
口口口口 |----|
12
口口口④ |①---|
口口口③ |②---|
口口口② |③---|
口口口① |④---|
13
口口口口 |①-②-|
口口①口 |----|
口②口口 |----|
口口口口 |----|
14
①口③口 |--①-|
口②口④ |--②-|
口口口⑤ |③-④-|
口口⑥口 |⑤-⑥-|
15
口③口① |--①-|
④口②口 |--②-|
口⑤⑥口 |③-④-|
口口口口 |⑤-⑥-|
16
口口口口 |①---|
口口口口 |----|
口口口① |----|
口口口口 |----|
17
口口⑤口 |①-②-|
④口⑥口 |--③-|
③口口口 |--④-|
口②①口 |⑤-⑥-|
18
口③口口 |①-②-|
口④口口 |----|
口口①口 |----|
口口②口 |③-④-|
19
口口口口 |①-②-|
口口口口 |----|
口①口口 |----|
口②口口 |----|
20
口⑦⑦口 |①-②-|
口⑥①口 |③-④-|
口②⑤口 |⑤-⑥-|
口④③口 |--⑦-|
21
①口口口 |----|
②口口口 |----|
口口口口 |----|
口口口口 |①-②-|
22
口口口③ |①-②-|
口口口④ |----|
①口口口 |----|
②口口口 |③-④-|
23
口口口口 |①-②-|
口口口口 |--③-|
口④③① |④---|
口口口② |----|
24
①口口② |①---|
口①②口 |②---|
口③④口 |③-④-|
口⑤口口 |--⑤-|
25
口口口口 |①---|
口口③口 |----|
口口口② |②---|
口口①口 |③---|
26
口①口口 |--①-|
②③④口 |②-③-|
口⑤⑥口 |--④-|
口口口口 |⑤-⑥-|
27
口⑦口口 |--①-|
⑥口口口 |②-③-|
⑤口口① |④-⑤-|
口④②③ |⑥-⑦-|
28
口口口口 |①-②-|
口口①口 |----|
口②口口 |----|
口口口口 |----|
29
④⑤⑤④ |①-②-|
口口口③ |③---|
口口②口 |④-⑤-|
口①口口 |----|
30
口口口口 |①---|
①口口① |----|
口①①口 |----|
口口口口 |----|
31
口口口口 |----|
口口口口 |----|
口口口口 |----|
口口口口 |----|
32
④③②① |①-②-|
⑤口口口 |③-④-|
口⑥⑦⑧ |-⑤-⑥|
口口口口 |⑦-⑧-|
33
口口口口 |①-②-|
口口口口 |③-④-|
口口口口 |----|
④③②① |----|
34
口口口口 |①---|
①口口④ |②---|
口②③口 |③---|
口口口口 |④---|
35
口口口口 |①---|
口①①口 |②---|
②口口② |③---|
口③③口 |----|
36
口口①口 |①---|
口口口② |②---|
口口口③ |③---|
口口④口 |④---|
37
口口口口 |①---|
③口口③ |②---|
口②②口 |③---|
①口口① |----|
38
①口口口 |①---|
②口口口 |②---|
③口口口 |③---|
④口口口 |④---|
39
口口口口 |①-②-|
口口②口 |----|
口①口口 |----|
口口口口 |----|
40
口③口① |--①-|
④口②口 |--②-|
⑤口口口 |③-④-|
口⑥口口 |⑤-⑥-|
41
①口③口 |--①-|
口②口④ |--②-|
口⑥⑤口 |③-④-|
口口口口 |⑤-⑥-|
42
口口口口 |①---|
口口口口 |----|
①口口口 |----|
口口口口 |----|
43
口⑤口口 |①-②-|
口⑥口④ |--③-|
口口口③ |--④-|
口①②口 |⑤-⑥-|
44
口口③口 |①-②-|
口口④口 |----|
口①口口 |----|
口②口口 |③-④-|
45
口口口口 |①-②-|
口口口口 |----|
口口①口 |----|
口口②口 |----|
46
口⑦⑦口 |①-②-|
口①⑥口 |③-④-|
口⑤②口 |⑤-⑥-|
口③④口 |--⑦-|
47
口口口① |----|
口口口② |----|
口口口口 |----|
口口口口 |①-②-|
48
③口口口 |①-②-|
④口口口 |----|
口口口① |----|
口口口② |③-④-|
49
口口口口 |①-②-|
口口口口 |--③-|
①③④口 |④---|
②口口口 |----|
50
②口口① |①---|
口②①口 |②---|
口④③口 |③-④-|
口口⑤口 |--⑤-|
51
口口口口 |①---|
口③口口 |----|
②口口口 |②---|
口①口口 |③---|
52
口口①口 |--①-|
口④③② |②-③-|
口⑥⑤口 |--④-|
口口口口 |⑤-⑥-|
53
口口⑦口 |--①-|
口口口⑥ |②-③-|
①口口⑤ |④-⑤-|
③②④口 |⑥-⑦-|
54
口口口口 |①-②-|
口①口口 |----|
口口②口 |----|
口口口口 |----|
55
④⑤⑤④ |①-②-|
③口口口 |③---|
口②口口 |④-⑤-|
口口①口 |----|
56
口口口口 |①---|
①口口① |----|
口①①口 |----|
口口口口 |----|
57
口口口口 |----|
口口口口 |----|
口口口口 |----|
口口口口 |----|
58
口口口口 |----|
①口口① |----|
口①①口 |①---|
口口口口 |----|


不确定度: 0

最終更新:2012年12月03日 19:08