キューティーハニー

EXTREME

Level: 6
BPM: 155
Notes: 302

1
口口口口 |----|
口口口口 |----|
口口口口 |----|
口口口口 |----|
2
①②②① |①---|
③④④③ |②---|
口口口口 |③---|
口口口口 |④---|
3
口口口口 |①---|
口口口口 |②---|
①②②① |③---|
③口口③ |----|
4
口口口口 |①---|
①④②③ |②---|
口②④口 |③---|
口口口口 |④---|
5
口口口口 |①---|
①④②③ |②---|
口②④口 |③---|
口口口口 |④---|
6
口口口① |①-②-|
口口②⑧ |③-④-|
口③口⑦ |-⑤-⑥|
④⑤⑥口 |⑦-⑧-|
7
口②①口 |①-②-|
③口口口 |③-④-|
④口口口 |----|
口口口口 |----|
8
口⑧①口 |①-②-|
口②⑦口 |③-④-|
口⑥③口 |⑤-⑥-|
口④⑤口 |⑦-⑧-|
9
①口口口 |①-②-|
口②口口 |③-④-|
口口③口 |⑤---|
口口⑤④ |----|
10
口口口口 |①-②-|
⑧口口⑤ |③-④-|
①⑦⑥④ |⑤-⑥-|
口②③口 |⑦-⑧-|
11
①口⑤④ |①-②-|
口②③口 |③-④-|
口口口口 |⑤---|
口口口口 |----|
12
口①⑧口 |①-②-|
②口口⑦ |③-④-|
③口口⑥ |⑤-⑥-|
口④⑤口 |⑦-⑧-|
13
口口口口 |①-②-|
口①口口 |----|
口口②口 |----|
口口口口 |----|
14
口①口口 |--①-|
⑦口②口 |②-③-|
⑥口口③ |④-⑤-|
口⑤④口 |⑥-⑦-|
15
口①口口 |--①-|
口④②口 |②-③-|
⑥口⑤③ |④--⑤|
口⑦口口 |⑥-⑦-|
16
口口口口 |①---|
口口口口 |----|
口口口口 |----|
①口口口 |----|
17
口口④口 |①-②-|
口③口⑤ |--③-|
口口②⑥ |--④-|
口①口口 |⑤-⑥-|
18
口口口口 |①-②-|
口口口口 |----|
口④口口 |----|
③②①口 |③-④-|
19
口口口② |①-②-|
口口①口 |----|
口口口口 |----|
口口口口 |----|
20
口⑦①口 |①-②-|
⑦③口② |③-④-|
⑤口④⑦ |⑤-⑥-|
口⑥⑦口 |--⑦-|
21
口口口口 |----|
口口口口 |----|
②口口口 |----|
口①口口 |①-②-|
22
口②③口 |①-②-|
①口口④ |----|
口口口口 |----|
口口口口 |③-④-|
23
口口口口 |①-②-|
口①口口 |--③-|
③口②口 |④---|
口④口口 |----|
24
③①②口 |①---|
①④口② |②---|
②口⑤① |③-④-|
口②①口 |--⑤-|
25
口口口口 |①---|
口口②口 |----|
口③口口 |②---|
口口口① |③---|
26
口①口④ |--①-|
②③⑤⑥ |②-③-|
口口口口 |--④-|
口口口口 |⑤-⑥-|
27
口⑦⑥口 |--①-|
口口口⑤ |②-③-|
口口①④ |④-⑤-|
口②③口 |⑥-⑦-|
28
口口口口 |①-②-|
口口①口 |----|
口②口口 |----|
口口口口 |----|
29
口口口口 |①-②-|
口口④① |③---|
口⑤②口 |④-⑤-|
口③口口 |----|
30
口①口口 |①---|
①①口口 |----|
口口①① |----|
口口①口 |----|
31
口口口口 |----|
口口口口 |----|
口口口口 |----|
口口口口 |----|
32
①口口口 |①-②-|
⑧②口口 |③-④-|
⑦口③口 |-⑤-⑥|
口⑥⑤④ |⑦-⑧-|
33
口①②口 |①-②-|
口口口③ |③-④-|
口口口④ |----|
口口口口 |----|
34
口①⑧口 |①-②-|
口⑦②口 |③-④-|
口③⑥口 |⑤-⑥-|
口⑤④口 |⑦-⑧-|
35
口口口① |①-②-|
口口②口 |③-④-|
口③口口 |⑤---|
④⑤口口 |----|
36
口⑤④口 |①-②-|
口口⑥③ |③-④-|
口口⑦② |⑤-⑥-|
口⑧①口 |⑦-⑧-|
37
④口口口 |①-②-|
⑤③口口 |③-④-|
口②口口 |⑤---|
①口口口 |----|
38
口⑦⑥口 |①-②-|
⑧口口⑤ |③-④-|
①口口④ |⑤-⑥-|
口②③口 |⑦-⑧-|
39
口口口口 |①-②-|
口口②口 |----|
口①口口 |----|
口口口口 |----|
40
口口①口 |--①-|
口②口⑦ |②-③-|
③口口⑥ |④-⑤-|
口④⑤口 |⑥-⑦-|
41
口口①口 |--①-|
口②④口 |②-③-|
③⑤口⑥ |④--⑤|
口口⑦口 |⑥-⑦-|
42
口口口口 |①---|
口口口口 |----|
口口口口 |----|
口口口① |----|
43
口④口口 |①-②-|
⑤口③口 |--③-|
⑥②口口 |--④-|
口口①口 |⑤-⑥-|
44
口口口口 |①-②-|
口口口口 |----|
口口④口 |----|
口①②③ |③-④-|
45
②口口口 |①-②-|
口①口口 |----|
口口口口 |----|
口口口口 |----|
46
口①⑦口 |①-②-|
②口③⑦ |③-④-|
⑦④口⑤ |⑤-⑥-|
口⑦⑥口 |--⑦-|
47
口口口口 |----|
口口口口 |----|
口口口② |----|
口口①口 |①-②-|
48
口③②口 |①-②-|
④口口① |----|
口口口口 |----|
口口口口 |③-④-|
49
口口口口 |①-②-|
口口①口 |--③-|
口②口③ |④---|
口口④口 |----|
50
口②①③ |①---|
②口④① |②---|
①⑤口② |③-④-|
口①②口 |--⑤-|
51
口口口口 |①---|
口②口口 |----|
口口③口 |②---|
①口口口 |③---|
52
④口①口 |--①-|
⑥⑤③② |②-③-|
口口口口 |--④-|
口口口口 |⑤-⑥-|
53
口⑥⑦口 |--①-|
⑤口口口 |②-③-|
④①口口 |④-⑤-|
口③②口 |⑥-⑦-|
54
口口口口 |①-②-|
口①口口 |----|
口口②口 |----|
口口口口 |----|
55
口口口口 |①-②-|
①④口口 |③---|
口②⑤口 |④-⑤-|
口口③口 |----|
56
口口①口 |①---|
口口①① |----|
①①口口 |----|
口①口口 |----|
57
口口口口 |----|
口口口口 |----|
口口口口 |----|
口口口口 |----|
58
口口口口 |----|
口①①口 |----|
①①①① |①---|
口口口口 |----|


不确定度: 0

最終更新:2012年12月03日 19:07