BLUE BIRD

BASIC

Level: 2
BPM: 122
Notes: 183

1
口口口口 |----|
口口口口 |----|
口口口口 |----|
口口口口 |----|
2
口①口口 |①---|
口口口口 |----|
口②口口 |②---|
口口口口 |----|
3
口口口口 |①---|
口口①口 |②---|
口口②口 |③---|
口口③口 |----|
4
口口口口 |①---|
口口口② |----|
口口口口 |②---|
口口口① |----|
5
口口③口 |①---|
口口②口 |②---|
口口①口 |③---|
口口口口 |----|
6
口口口口 |①---|
②口口口 |----|
口口口口 |②---|
①口口口 |----|
7
口③口口 |①---|
口②口口 |②---|
口①口口 |③---|
口口口口 |----|
8
口口①口 |①---|
口口口口 |----|
口口②口 |②---|
口口口口 |----|
9
口口口口 |①---|
口①口口 |②---|
口②口口 |③---|
口③口口 |----|
10
口①①口 |①---|
口②口口 |----|
口③口口 |②---|
口口口口 |③---|
11
口口口口 |①---|
口口③口 |②---|
口口②口 |③---|
口①①口 |----|
12
口口口口 |①---|
①口口② |----|
口口口口 |②---|
口口口口 |----|
13
口口口口 |①---|
口口口口 |----|
①①①① |----|
口口口口 |----|
14
口口口口 |①---|
口口③口 |②---|
口口②口 |③---|
口口①口 |----|
15
口①口口 |①---|
口②口口 |②---|
口③口口 |③---|
口口口口 |----|
16
②口口② |①---|
口①①口 |----|
口口口口 |②---|
口口口口 |----|
17
口口①口 |①---|
口口②口 |②---|
口③口口 |③---|
口④口口 |④---|
18
口口口口 |①---|
①②②① |----|
口口口口 |②---|
口口口口 |----|
19
口口口口 |①---|
口口口口 |②---|
①②③④ |③---|
口口口口 |④---|
20
口口口口 |①---|
口口口口 |----|
②口口② |②---|
①口口① |----|
21
口口口口 |①---|
口③②① |②---|
口口口口 |③---|
口口口口 |----|
22
口①①口 |①---|
口口口口 |----|
口②②口 |②---|
口口口口 |----|
23
口口口口 |①---|
口①②口 |②---|
口③④口 |③---|
口口口口 |④---|
24
口口口口 |①---|
口口口口 |----|
②口口② |②---|
口①①口 |----|
25
口口口口 |①---|
口①②口 |②---|
口③③口 |③---|
口口口口 |----|
26
口口口口 |①---|
口口口口 |----|
②②口口 |②---|
口口①① |----|
27
口③③口 |①---|
①③③② |②---|
口口口口 |③---|
口口口口 |----|
28
口口口口 |----|
口③口口 |①---|
口②口口 |②---|
口①口口 |③---|
29
口①②② |①---|
口口口口 |----|
口口口口 |②---|
口口口口 |----|
30
口口口口 |①---|
口口①口 |②---|
口口②口 |③---|
口④③口 |④---|
31
口③口口 |①---|
口②口口 |②---|
口①口口 |③---|
口口口口 |----|
32
①口②口 |①---|
口口口口 |----|
口口口口 |②---|
口口口口 |----|
33
口口口口 |①---|
口①②③ |②---|
口口口口 |③---|
口口口口 |----|
34
口口口口 |①---|
口口口口 |----|
口②口① |②---|
口口口口 |----|
35
口口口口 |①---|
口口口口 |②---|
口口口口 |③---|
③②①口 |----|
36
口口口③ |①---|
口口口② |----|
口①①口 |②---|
口口口口 |③---|
37
口①①口 |①---|
口②②口 |②---|
口③③口 |③---|
口口口口 |----|
38
口口口口 |①---|
口口口口 |----|
①口口② |②---|
口口口口 |----|
39
口口口口 |①---|
①①①① |----|
口口口口 |----|
口口口口 |----|
40
口①口口 |①---|
口②口口 |②---|
口③口口 |③---|
口口口口 |----|
41
口口口口 |①---|
口口③口 |②---|
口口②口 |③---|
口口①口 |----|
42
口口口口 |①---|
口口口口 |----|
口①①口 |②---|
口②②口 |----|
43
口口口口 |①---|
口③②口 |②---|
口④①口 |③---|
口口口口 |④---|
44
口口口口 |①---|
②口口② |----|
口口口口 |②---|
①口口① |----|
45
口口口口 |①---|
口口口口 |②---|
①②③④ |③---|
口口口口 |④---|
46
①口口① |①---|
口口口口 |----|
②口口② |②---|
口口口口 |----|
47
口口口口 |①---|
口③②① |②---|
口口口口 |③---|
口口口口 |----|
48
口②②口 |①---|
口口口口 |----|
口①①口 |②---|
口口口口 |----|
49
口口口口 |①---|
口①②口 |②---|
口③④口 |③---|
口口口口 |④---|
50
口口口口 |①---|
口口口口 |----|
②口口② |②---|
口①①口 |----|
51
口口口口 |①---|
口①②口 |②---|
口③③口 |③---|
口口口口 |----|
52
口口口口 |①---|
②②①① |----|
口口口口 |②---|
口口口口 |----|
53
口口口口 |①---|
口口口口 |②---|
①③③② |③---|
口③③口 |----|


不确定度: 0

最終更新:2012年12月03日 19:06