BLUE BIRD

ADVANCED

Level: 4
BPM: 122
Notes: 322

1
口口口口 |----|
口口口口 |----|
口口口口 |----|
口口口口 |----|
2
①①口口 |①---|
口口②② |----|
口口口口 |②---|
口口口口 |----|
3
口口口口 |①-②③|
口口口口 |--④-|
①②③④ |⑤---|
口口口⑤ |----|
4
口口①① |①---|
②②口口 |----|
口口口③ |②---|
口口口口 |--③-|
5
口口口口 |①-②③|
口口口口 |--④-|
③②①口 |⑤---|
④⑤口口 |----|
6
口口口口 |①---|
①①口口 |----|
口口②② |②---|
口口口口 |----|
7
⑤④口口 |①-②③|
口③口口 |--④-|
口②口口 |⑤---|
口①口口 |----|
8
口口口口 |①---|
口口①① |----|
②②口口 |②---|
口口口口 |----|
9
口口④⑤ |①-②③|
口口③口 |--④-|
口口②口 |⑤---|
口口①口 |----|
10
口口口口 |①---|
①口口口 |----|
口口口② |②---|
③④④③ |③-④-|
11
④③③④ |①-②-|
⑥②②⑤ |③-④-|
口①①口 |----|
口口口口 |⑤-⑥-|
12
口口口口 |①-②-|
口④④口 |----|
口②①口 |③---|
口③③口 |④---|
13
口①①口 |①---|
口口口口 |----|
口口口口 |----|
口口口口 |----|
14
口口口口 |①--②|
口口口④ |--③-|
口②③口 |④---|
①口口口 |----|
15
口口口口 |①--②|
④口口口 |--③-|
口③②口 |④---|
口口口① |----|
16
②口口② |①---|
口口口口 |----|
①口口① |②---|
口口口口 |----|
17
口口口口 |①---|
①②②① |②---|
③④④③ |③---|
口口口口 |④---|
18
④口口④ |①---|
③口口③ |②---|
②口口② |③---|
①①①① |④---|
19
口⑦①口 |①-②-|
口⑥②口 |③-④-|
口⑤③口 |⑤-⑥-|
口④口口 |⑦---|
20
④口口④ |①---|
③口口③ |②---|
②口口② |③--④|
①①①① |----|
21
口①口口 |①-②-|
口②口口 |③-④-|
口③口口 |⑤---|
口④⑤口 |----|
22
④④③③ |①---|
①①②② |②---|
②②①① |③---|
③③④④ |④---|
23
口口口口 |①-②-|
①②③口 |③-④-|
⑦⑥⑤④ |⑤-⑥-|
口口口口 |⑦---|
24
口口口口 |①---|
①①①① |----|
②②②② |②---|
口口口口 |----|
25
①⑤⑤④ |①-②-|
口③②口 |③-④-|
口口口口 |⑤---|
口口口口 |----|
26
口口口口 |①---|
①口①口 |----|
口②口② |②---|
口口口口 |----|
27
口④口口 |①-②-|
口⑤①口 |③-④-|
口③⑤口 |⑤---|
口口②口 |----|
28
①口口口 |①---|
口口口口 |②---|
②口口口 |③---|
口③口④ |④---|
29
③③口口 |①---|
口②口口 |--②-|
口口①口 |③---|
口口口口 |----|
30
口口口① |①---|
口口口口 |②---|
口口口② |③---|
④口③口 |④---|
31
口口口口 |①---|
口口②② |----|
口①口口 |②---|
口口口口 |----|
32
口口口口 |①---|
口口口口 |----|
②②口口 |②---|
口口①① |----|
33
⑤口口口 |①-②-|
④③②① |③-④-|
口口口口 |⑤---|
口口口口 |----|
34
口口口口 |①---|
③口口口 |----|
口口②② |②---|
①①口口 |--③-|
35
口口⑤④ |①-②-|
口①②③ |③-④-|
口口口口 |⑤---|
口口口口 |----|
36
③④④③ |①---|
②口口口 |----|
口口口① |②---|
口口口口 |③-④-|
37
口口口口 |①-②-|
口①①口 |③-④-|
⑤②②⑥ |----|
④③③④ |⑤-⑥-|
38
口③③口 |①-②-|
口①②口 |----|
口④④口 |③---|
口口口口 |④---|
39
口口口口 |①---|
口口口口 |----|
口口口口 |----|
口①①口 |----|
40
口口①① |①--②|
口③②口 |--③-|
④④口口 |④---|
口口口口 |----|
41
①①口口 |①--②|
口②③口 |--③-|
口口④④ |④---|
口口口口 |----|
42
口口口口 |①---|
①口口① |----|
口口口口 |②---|
②口口② |----|
43
口口口口 |①---|
③②②③ |②---|
①④④① |③---|
口口口口 |④---|
44
①①①① |①---|
口②口② |②---|
③口③口 |③---|
口④口④ |④---|
45
口⑦①口 |①-②-|
口⑥②口 |③-④-|
口⑤③口 |⑤-⑥-|
口④口口 |⑦---|
46
口④口④ |①---|
③口③口 |②---|
口②口② |③---|
①①①① |④---|
47
口口①口 |①-②-|
口④⑤口 |③-④-|
口⑤②口 |⑤---|
口③口口 |----|
48
④④③③ |①---|
①①②② |②---|
②②①① |③---|
③③④④ |④---|
49
口口口口 |①-②-|
④⑤⑥⑦ |③-④-|
口③②① |⑤-⑥-|
口口口口 |⑦---|
50
口口口口 |①---|
②②②② |----|
①①①① |②---|
口口口口 |----|
51
①⑤⑤④ |①-②-|
口③②口 |③-④-|
口口口口 |⑤---|
口口口口 |----|
52
口口口口 |①---|
口①口① |----|
②口②口 |②---|
口口口口 |----|
53
口口③口 |①-②-|
口②⑤口 |③-④-|
口⑤④口 |⑤---|
口①口口 |----|


不确定度: 0

最終更新:2012年12月03日 19:06