RePrise
SHOGO

ADVANCED

Level: 7
BPM: 182
Notes: 360

1
口口口口 |----|
口口口口 |----|
口口口口 |----|
口口口口 |----|
2
④口口④ |①---|
③口口③ |②---|
口②②口 |③---|
口①①口 |④---|
3
口①口口 |①---|
口口②口 |--②-|
①口口口 |----|
口③③② |--③-|
4
②口口② |----|
①口口① |----|
口口口口 |①---|
口口口口 |②---|
5
口①口口 |①---|
口口②口 |--②-|
①口口口 |----|
口③③② |--③-|
6
口口口口 |----|
①口口① |----|
口口口口 |①---|
口②②口 |②---|
7
口①口口 |①---|
口口②口 |--②-|
①口口口 |----|
口③③② |--③-|
8
②口口② |----|
①口口① |----|
口口口口 |①---|
口口口口 |②---|
9
口①口口 |①---|
口口②口 |--②-|
①口口口 |----|
口③③② |--③-|
10
口口口口 |----|
①口口① |----|
口口口口 |①---|
②口口② |②---|
11
①①①口 |--①-|
口①口口 |----|
口②②② |②---|
口口②口 |----|
12
①①①口 |--①-|
口①口口 |----|
口②②② |②---|
口口②口 |----|
13
口①①口 |----|
口②②口 |①---|
口③③口 |②---|
口口口口 |③---|
14
口口口口 |①---|
口口口口 |----|
口口口口 |----|
口①①口 |----|
15
口口口口 |----|
口口口口 |----|
口口口口 |----|
口口口口 |----|
16
①①①口 |--①-|
口①口口 |----|
口②口② |②---|
口口②口 |----|
17
①口口口 |--①-|
①①口② |----|
口口②② |②---|
口口②口 |----|
18
口口口口 |----|
口口③口 |①---|
口②口口 |②---|
①口口口 |③---|
19
口口口① |①---|
口口口口 |----|
口口口口 |----|
口口口口 |----|
20
口口口口 |----|
口口口口 |----|
口口口口 |----|
口口口口 |----|
21
②口口② |--①-|
口口口口 |----|
口①①口 |②---|
口口口口 |----|
22
口⑤③口 |--①-|
口①①口 |--②-|
口④②口 |③---|
口口口口 |④-⑤-|
23
口口口口 |--①-|
①口口② |②---|
口口口口 |----|
口口口口 |----|
24
口口口口 |----|
口口口口 |----|
口口口口 |----|
口口口口 |----|
25
口口口口 |----|
①②⑤口 |①---|
口③④口 |②-③-|
口口口口 |④-⑤-|
26
口口口口 |--①-|
口②④口 |--②-|
①③⑤口 |③---|
口口口口 |④-⑤-|
27
口口口口 |--①-|
口口口① |②---|
口口口② |----|
口口口口 |----|
28
①口口口 |----|
①②③口 |----|
①口③口 |①---|
口口口口 |②-③-|
29
口口口口 |----|
口口口口 |----|
口口口口 |----|
口口口口 |----|
30
口口口口 |----|
口口口口 |----|
口口口口 |----|
口口口口 |----|
31
①口口② |--①-|
口口②口 |----|
①口②② |--②-|
①口②口 |----|
32
口口口口 |--①-|
①口口② |----|
①口口② |--②-|
口口口口 |----|
33
④口口③ |①---|
①②口口 |②---|
⑥口口⑤ |③-④-|
口口口口 |⑤-⑥-|
34
口②①口 |①-②-|
口④③口 |③-④-|
口⑥⑤口 |⑤-⑥-|
口口口口 |----|
35
①口①口 |----|
口②口口 |①---|
口③口口 |②---|
口口口口 |③---|
36
口口口口 |①---|
口口口③ |②-③-|
④口①口 |--④-|
口口⑤② |--⑤-|
37
口口口口 |①---|
口口①口 |②-③-|
口②口③ |----|
口口口口 |----|
38
口口口口 |----|
口口口口 |----|
口口口口 |----|
口口口口 |----|
39
①④口口 |--①-|
②⑤口口 |②-③-|
③⑥口口 |--④-|
口口口口 |⑤-⑥-|
40
口口③④ |--①-|
口口②⑤ |②-③-|
口口①⑥ |--④-|
口口口口 |⑤-⑥-|
41
③口口口 |①---|
④口口口 |②---|
⑤口口口 |③-④-|
⑥②②① |⑤-⑥-|
42
口口口口 |--①-|
口口口④ |②---|
口①②口 |③-④-|
口口口③ |----|
43
①口①口 |----|
口②口口 |①---|
口③口口 |②---|
口口口口 |③---|
44
口口口口 |①---|
口口口③ |②-③-|
口④①口 |--④-|
口口⑤② |--⑤-|
45
口口口口 |①---|
口口①口 |②-③-|
口口②③ |----|
口口口口 |----|
46
口口口口 |----|
口口口口 |----|
口口口口 |----|
口口口口 |----|
47
①口口② |①---|
口口口口 |----|
口口口口 |②---|
口口口口 |----|
48
口口口口 |①---|
口口口口 |----|
①口口② |②---|
口口口口 |----|
49
口口口口 |①---|
口口口口 |----|
口②②口 |②---|
口①①口 |----|
50
②口口② |①---|
①口口① |----|
口口口口 |②---|
口口口口 |----|
51
口口口口 |①---|
①②③④ |②---|
口口口口 |③---|
口口口口 |④---|
52
口口口口 |①---|
口口口口 |②---|
①②口口 |③---|
口口④③ |④---|
53
④③②① |①---|
口口口口 |②---|
口口口口 |③---|
口口口口 |④---|
54
口口口口 |①---|
口口口③ |②---|
①②口③ |③---|
口口口口 |----|
55
口①②口 |①---|
口③④口 |②---|
口口口口 |③---|
口口口口 |④---|
56
口口口口 |①---|
口口口口 |②---|
口①②口 |③-④-|
口③④口 |----|
57
①口口② |①---|
③口口④ |②---|
口口口口 |③---|
口口口口 |④---|
58
口③③口 |①---|
口口口口 |②---|
①口口② |③---|
口口口口 |----|
59
①口口② |--①-|
口口②口 |----|
①口②② |--②-|
①口②口 |----|
60
口口口口 |--①-|
①口口② |----|
①口口② |--②-|
口口口口 |----|
61
④口口③ |①---|
①②口口 |②---|
⑥口口⑤ |③-④-|
口口口口 |⑤-⑥-|
62
口②①口 |①-②-|
口④③口 |③-④-|
口⑥⑤口 |⑤-⑥-|
口口口口 |----|
63
①口①口 |----|
口②口口 |①---|
口③口口 |②---|
口口口口 |③---|
64
口口口口 |①---|
口口口③ |②-③-|
④口①口 |--④-|
口口⑤② |--⑤-|
65
口口口口 |①---|
口口①口 |②-③-|
口②口③ |----|
口口口口 |----|
66
口口口口 |----|
口口口口 |----|
口口口口 |----|
口口口口 |----|
67
①④口口 |--①-|
②⑤口口 |②-③-|
③⑥口口 |--④-|
口口口口 |⑤-⑥-|
68
口口③④ |--①-|
口口②⑤ |②-③-|
口口①⑥ |--④-|
口口口口 |⑤-⑥-|
69
③口口口 |①---|
④口口口 |②---|
⑤口口口 |③-④-|
⑥②②① |⑤-⑥-|
70
口口口口 |--①-|
口口口④ |②---|
口①②口 |③-④-|
口口口③ |----|
71
①口①口 |----|
口②口口 |①---|
口③口口 |②---|
口口口口 |③---|
72
口口口口 |①---|
口口口③ |②-③-|
口④①口 |--④-|
口口⑤② |--⑤-|
73
口口口口 |①---|
口口①口 |②-③-|
口口②③ |----|
口口口口 |----|
74
口口口口 |----|
口口口口 |----|
口口口口 |----|
口口口口 |----|
75
口⑥⑤④ |①---|
②口口③ |②-③-|
口口口口 |--④-|
口①①口 |⑤-⑥-|
76
口口口口 |--①-|
口⑤④③ |②---|
口①②口 |③-④-|
口口口口 |⑤---|
77
口⑥⑤④ |①---|
②口口③ |②-③-|
口口口口 |--④-|
口①①口 |⑤-⑥-|
78
口口口口 |--①-|
口⑤④③ |②---|
口①②口 |③-④-|
口口口口 |⑤---|
79
口⑥⑤④ |①---|
②口口③ |②-③-|
口口口口 |--④-|
口①①口 |⑤-⑥-|
80
口口口口 |--①-|
口⑤④③ |②---|
口①②口 |③-④-|
口口口口 |⑤---|
81
口⑥⑤④ |①---|
②口口③ |②-③-|
口口口口 |--④-|
口①①口 |⑤-⑥-|
82
口口口口 |--①-|
⑦⑥⑤④ |②-③-|
口①②③ |④-⑤-|
口口口口 |⑥-⑦-|
83
口①①口 |①---|
口口口口 |----|
口口口口 |----|
口口口口 |----|
84
口口口口 |----|
口口口口 |----|
口口口口 |----|
口口口口 |----|
85
口口口口 |①---|
口①①口 |----|
口口口口 |----|
口口口口 |----|


不确定度: 0

最終更新:2012年11月06日 23:02